<?xml version="1.0" encoding="UTF-8" standalone="no"?>
<!-- Created with Inkscape (http://www.inkscape.org/) -->

<svg
   width="402.50183mm"
   height="81.640648mm"
   viewBox="0 0 402.50183 81.640648"
   version="1.1"
   id="svg1"
   xml:space="preserve"
   inkscape:version="1.4 (e7c3feb1, 2024-10-09)"
   sodipodi:docname="logo-kit-n.svg"
   xmlns:inkscape="http://www.inkscape.org/namespaces/inkscape"
   xmlns:sodipodi="http://sodipodi.sourceforge.net/DTD/sodipodi-0.dtd"
   xmlns="http://www.w3.org/2000/svg"
   xmlns:svg="http://www.w3.org/2000/svg"><sodipodi:namedview
     id="namedview1"
     pagecolor="#ffffff"
     bordercolor="#000000"
     borderopacity="0.25"
     inkscape:showpageshadow="2"
     inkscape:pageopacity="0.0"
     inkscape:pagecheckerboard="0"
     inkscape:deskcolor="#d1d1d1"
     inkscape:document-units="mm"
     inkscape:zoom="0.22471766"
     inkscape:cx="1261.5831"
     inkscape:cy="-947.85607"
     inkscape:window-width="1936"
     inkscape:window-height="1299"
     inkscape:window-x="0"
     inkscape:window-y="31"
     inkscape:window-maximized="0"
     inkscape:current-layer="layer1" /><defs
     id="defs1"><font
       id="FontID1"
       horiz-adv-x="540"
       font-variant="normal"
       style="fill-rule:nonzero"
       font-style="normal,italic"
       font-weight="700"
       horiz-origin-x="0"
       horiz-origin-y="0"
       vert-origin-x="512"
       vert-origin-y="768"
       vert-adv-y="1024">
	<font-face
   font-family="Cuprum"
   id="font-face1">
		<font-face-src>
			<font-face-name
   name="Cuprum Bold Italic" />
		</font-face-src>
	</font-face>
   <missing-glyph
   id="missing-glyph1"><path
     d="M0 0z"
     id="path1" /></missing-glyph>
   <glyph
   unicode="-"
   horiz-adv-x="380"
   d="M89.0001 340.001l319.998 0 -13.998 -80.0017 -320.003 0 14.0022 80.0017z"
   id="glyph1" />
   <glyph
   unicode="а"
   horiz-adv-x="490"
   d="M336.999 440.001c-15.3309,0 -29.4971,-2.83408 -42.4985,-8.50223 -13.0014,-5.66395 -25.1661,-15.6673 -36.4982,-29.9975 -11.3363,-14.3344 -21.5037,-33.8365 -30.5021,-58.5022 -8.9984,-24.6657 -16.8321,-55.6639 -23.501,-92.9989 -6.6647,-37.335 -9.83096,-68.3332 -9.49878,-92.9989 0.332184,-24.6657 3.16626,-44.1679 8.49802,-58.5022 5.33597,-14.3302 13.0014,-24.3335 23.0006,-29.9975 10.0034,-5.66815 21.3355,-8.50223 34.0005,-8.50223 12.6692,0 24.1695,2.00151 34.5009,6.00034 10.3313,3.99882 18.5014,8.66622 24.5017,14.0022l62.9972 359.999 -45.0004 0zm87.9993 -440.001l-84.9971 0 -9.99916 30.0017 -5.00378 0c-12.665,-10.0034 -28.3324,-19.17 -46.9977,-27.4998 -18.6654,-8.33403 -41.9981,-12.5011 -69.9983,-12.5011 -25.3343,0 -47.5023,4.6674 -66.4999,13.998 -19.0018,9.33479 -34.1687,24.3335 -45.5008,45.0004 -11.3363,20.6669 -18.3332,47.5023 -21.0033,80.5021 -2.66588,32.9997 0.336389,73.1646 9.00261,120.499 7.99765,47.3341 19.334,87.4989 34.0005,120.499 14.6666,32.9997 32.8316,59.8352 54.4992,80.5021 21.6676,20.6669 47.1659,35.6656 76.499,45.0004 29.3331,9.33059 62.6692,13.998 100,13.998 35.3334,0 64.9987,-2.49769 89.0001,-7.49727 24.0013,-5.00378 47.6663,-12.5011 70.9991,-22.5002l-84.0005 -480.002z"
   id="glyph2" />
   <glyph
   unicode="в"
   horiz-adv-x="490"
   d="M255 59.9992c11.3321,0 22.332,1.33294 32.9997,3.99882 10.6677,2.67009 20.4987,7.33328 29.5013,14.0022 8.9984,6.6647 16.8321,15.4991 23.501,26.499 6.6647,10.9999 11.3321,24.5017 13.998,40.5012 5.33176,29.9975 0.500378,50.8326 -14.4984,62.5011 -15.0029,11.6643 -33.8365,17.4964 -56.5007,17.4964l-59.9992 0 -29.0009 -164.999 59.9992 0zm7.00109 380.002l-25.0021 -145 50 0c19.334,0 37.5032,5.33176 54.5034,15.9995 16.996,10.6677 27.832,28.6687 32.4994,53.9988 2.66588,14.0022 2.49769,25.6665 -0.500378,35.0013 -3.00227,9.33479 -7.50147,17.0003 -13.5018,23.0006 -6.00034,6.00034 -13.3336,10.3313 -21.9998,13.0014 -8.66622,2.66588 -17.3324,3.99882 -25.9987,3.99882l-50 0zm-111 50c26.6672,7.33328 53.3345,12.5011 79.9975,15.4991 26.6672,2.99807 57.6697,4.4992 93.0031,4.4992 32.6634,0 60.9999,-2.1655 84.9971,-6.50071 24.0013,-4.33101 43.5035,-11.8325 58.5022,-22.5002 14.9987,-10.6635 25.3343,-24.9979 30.9982,-42.9989 5.66815,-18.001 6.16853,-40.6652 1.50114,-68.001 -3.33445,-15.9995 -8.49802,-29.8335 -15.4991,-41.4978 -7.00109,-11.6685 -15.0029,-21.4995 -24.0013,-29.5013 -8.9984,-7.99765 -18.6654,-14.4984 -29.0009,-19.4979 -10.3313,-4.99958 -20.1665,-9.1666 -29.4971,-12.5011l-1.00076 -3.99882c10.6677,-3.33445 21.3313,-8.00185 31.999,-14.0022 10.6677,-6.00034 19.9983,-13.998 28.0002,-24.0013 8.00185,-9.99916 13.834,-21.9998 17.5006,-35.9978 3.66664,-14.0022 3.83483,-30.3339 0.500378,-48.9992 -5.33597,-30.0017 -14.0022,-54.6674 -26.0029,-74.0013 -11.9965,-19.334 -27.832,-34.6649 -47.4981,-46.0012 -19.6661,-11.3321 -42.9989,-19.1658 -69.9983,-23.4968 -27.0036,-4.33521 -57.8337,-6.50071 -92.5027,-6.50071 -40.0008,0 -73.501,1.50114 -100.5,4.4992 -26.9994,2.99807 -52.4977,8.16584 -76.499,15.4991l85.0013 480.002z"
   id="glyph3" />
   <glyph
   unicode="г"
   horiz-adv-x="414"
   d="M331.999 380.002c3.33445,19.9983 -2.99807,34.9971 -18.9976,44.9962 -15.9995,10.0034 -38.0035,15.0029 -65.9995,15.0029l-110.003 0 9.00261 50c15.9995,5.33176 35.8338,9.99916 59.4988,13.998 23.665,4.00303 48.1667,6.00034 73.501,6.00034 31.3304,0 58.6662,-2.1655 81.999,-6.50071 23.3328,-4.33101 42.4985,-11.8325 57.5015,-22.5002 14.9987,-10.6635 25.1661,-24.9979 30.4979,-42.9989 5.33597,-18.001 5.66815,-40.6652 1.00076,-68.001 -4.6674,-28.6645 -14.4984,-51.9973 -29.5013,-69.9983 -14.9987,-18.001 -32.1672,-32.8316 -51.4969,-44.5 -19.334,-11.6685 -40.0008,-21.4995 -62.0007,-29.5013 -21.9998,-7.99765 -42.5027,-16.1635 -61.5003,-24.4975 -19.0018,-8.33403 -35.1695,-18.001 -48.4989,-29.0009 -13.3336,-10.9999 -21.6676,-25.1661 -25.0021,-42.4985 -3.99882,-25.3343 2.66588,-43.3353 19.9983,-54.003 17.3366,-10.6635 45.0004,-15.9995 82.9997,-15.9995l110.003 0 -9.00261 -50c-15.3309,-5.33176 -34.9971,-9.99916 -58.9984,-13.998 -24.0013,-4.00303 -48.6671,-6.00034 -74.0013,-6.00034 -35.9978,0 -67.1642,2.1655 -93.4993,6.50071 -26.335,4.33101 -47.4981,12.1647 -63.4976,23.4968 -16.0037,11.3363 -26.6672,26.6672 -32.0032,46.0012 -5.33176,19.334 -5.33176,43.9997 0,74.0013 4.6674,28.6645 14.5026,51.9973 29.5013,69.9983 14.9987,18.001 32.1672,32.8358 51.5011,44.5 19.334,11.6685 39.9966,21.4995 62.0007,29.5013 21.9998,7.99765 42.4985,16.1677 61.4961,24.4975 19.0018,8.33403 35.1695,18.001 48.5031,29.0009 13.3336,10.9999 21.6676,25.1661 24.9979,42.5027z"
   id="glyph4" />
   <glyph
   unicode="ж"
   horiz-adv-x="669"
   d="M483 500l-35.9978 -200 4.99958 0c7.33328,0 14.9987,3.49844 22.9964,10.4995 8.00185,7.00109 18.6696,21.8358 32.0032,44.5l42.9989 75.0021c14.6666,25.3301 31.4986,44.9962 50.5004,58.9984 18.9976,13.998 43.4993,20.9991 73.501,20.9991 8.66622,0 16.8321,-0.500378 24.4975,-1.50114 7.66967,-0.996552 14.5026,-2.1655 20.5029,-3.49844 7.33328,-2.00151 13.6658,-3.66664 18.9976,-4.99958l-8.9984 -50c-17.3324,0 -30.666,-3.16626 -40.0008,-9.49878 -9.33479,-6.33252 -15.9995,-13.1696 -19.9983,-20.5029l-37.0028 -64.9987c-15.3309,-28.0002 -30.3339,-48.6671 -45.0004,-62.0007 -14.6666,-13.3336 -29.9975,-21.9998 -45.997,-25.9987l-1.00076 -3.99882c17.3324,-4.00303 32.6676,-13.0014 46.0012,-26.9994 13.3294,-14.0022 20.9991,-36.002 22.9964,-66.0037l6.00034 -79.9975c1.33294,-9.99916 6.16853,-19.1658 14.5026,-27.4998 8.33403,-8.33403 21.1673,-12.5011 38.4997,-12.5011l-8.00185 -50c-6.00034,-2.00151 -12.665,-3.66664 -19.9983,-4.99958 -13.3336,-3.33445 -29.0009,-4.99958 -47.0019,-4.99958 -32.6676,0 -56.9969,7.83366 -73.0006,23.501 -15.9995,15.6631 -24.9979,36.166 -26.9994,61.4961l-8.9984 95.0004c-1.33294,17.3366 -6.00034,30.8342 -14.0022,40.5012 -7.99765,9.66698 -18.3332,14.4984 -30.9982,14.4984l-4.99958 0 -39.0001 -224.998 -120.003 0 39.0001 224.998 -4.99958 0c-26.663,0 -48.3307,-18.3332 -64.9987,-54.9996l-41.0016 -95.0004c-11.3321,-25.3301 -27.6638,-45.833 -48.9992,-61.4961 -21.3313,-15.6673 -48.3307,-23.501 -80.9982,-23.501 -18.001,0 -32.9997,1.66512 -45.0004,4.99958 -6.66891,1.33294 -12.665,2.99807 -18.001,4.99958l8.00185 50c17.3324,0 31.8308,4.16702 43.4993,12.5011 11.6643,8.33403 19.4979,17.5006 23.501,27.4998l34.0005 79.9975c13.3336,30.0017 28.9967,52.0015 46.9977,66.0037 18.001,13.998 36.6664,22.9964 56.0003,26.9994l1.00076 3.99882c-15.3351,3.99882 -28.0002,12.665 -37.9993,25.9987 -10.0034,13.3336 -17.6688,34.0005 -23.0006,62.0007l-13.0014 64.9987c-1.99731,7.33328 -6.50071,14.1704 -13.4976,20.5029 -7.00109,6.33252 -19.17,9.49878 -36.5024,9.49878l9.00261 50 19.9983 4.99958c6.00034,1.33294 12.8332,2.50189 20.4987,3.49844 7.66967,1.00076 16.1677,1.50114 25.5025,1.50114 29.9975,0 52.1655,-7.00109 66.4999,-20.9991 14.3302,-14.0022 24.1653,-33.6683 29.4971,-58.9984l17.0003 -75.0021c5.33597,-22.6642 10.6677,-37.4989 15.9995,-44.5 5.33597,-7.00109 11.6685,-10.4995 19.0018,-10.4995l4.99958 0 36.002 200 119.998 0z"
   id="glyph5" />
   <glyph
   unicode="и"
   horiz-adv-x="504"
   d="M218.001 -9.99916c-21.3355,0 -41.0016,2.1655 -59.0026,6.50071 -17.9968,4.33101 -32.9997,12.4968 -45.0004,24.4975 -11.9965,12.0007 -20.3305,28.3324 -24.9979,48.9992 -4.6674,20.6669 -3.99882,47.3341 2.00151,80.0017l61.9965 350 120.003 0 -62.0007 -350c-3.33445,-17.3324 -3.66664,-31.835 -1.00076,-43.4993 2.66588,-11.6685 7.16929,-20.9991 13.5018,-28.0002 6.33252,-7.00109 13.998,-11.8325 23.0006,-14.5026 8.9984,-2.66588 18.4972,-3.99882 28.4963,-3.99882 12.6692,0 24.1695,2.00151 34.5009,6.00034 10.3355,3.99882 18.5014,8.66622 24.5017,14.0022l74.0013 419.998 119.998 0 -87.9993 -500 -85.0013 0 -9.99916 30.0017 -4.99958 0c-12.6692,-10.0034 -28.6687,-19.17 -48.0027,-27.4998 -19.3297,-8.33403 -43.9997,-12.5011 -73.9971,-12.5011z"
   id="glyph6" />
   <glyph
   unicode="к"
   horiz-adv-x="469"
   d="M340.001 263.001c17.3324,-4.00303 32.6676,-13.0014 46.0012,-26.9994 13.3294,-14.0022 20.9991,-36.002 22.9964,-66.0037l6.00034 -79.9975c1.33294,-9.99916 6.16853,-19.1658 14.5026,-27.4998 8.33403,-8.33403 21.1673,-12.5011 38.4997,-12.5011l-8.00185 -50c-6.00034,-2.00151 -12.665,-3.66664 -19.9983,-4.99958 -13.3336,-3.33445 -29.0009,-4.99958 -47.0019,-4.99958 -32.6676,0 -56.9969,7.83366 -73.0006,23.501 -15.9995,15.6631 -24.9979,36.166 -26.9994,61.4961l-8.9984 95.0004c-1.33294,17.3366 -6.00034,30.8342 -14.0022,40.5012 -7.99765,9.66698 -18.3332,14.4984 -30.9982,14.4984l-14.9987 0 -39.0001 -224.998 -120.003 0 87.9993 500 120.003 0 -36.002 -200 15.0029 0c7.33328,0 14.9987,3.49844 22.9964,10.4995 8.00185,7.00109 18.6696,21.8358 32.0032,44.5l42.9989 75.0021c14.6666,25.3301 31.4986,44.9962 50.5004,58.9984 18.9976,13.998 43.4993,20.9991 73.501,20.9991 8.66622,0 16.8321,-0.500378 24.4975,-1.50114 7.66967,-0.996552 14.5026,-2.1655 20.5029,-3.49844 7.33328,-2.00151 13.6658,-3.66664 18.9976,-4.99958l-8.9984 -50c-17.3324,0 -30.666,-3.16626 -40.0008,-9.49878 -9.33479,-6.33252 -15.9995,-13.1696 -19.9983,-20.5029l-37.0028 -64.9987c-15.3309,-28.0002 -30.3339,-48.6671 -45.0004,-62.0007 -14.6666,-13.3336 -29.9975,-21.9998 -45.997,-25.9987l-1.00076 -3.99882z"
   id="glyph7" />
   <glyph
   unicode="м"
   horiz-adv-x="659"
   d="M292.999 74.9979l-46.9977 240.001 -4.00303 0 -76.9994 -314.999 -114.999 0 123.001 500 129.997 0 59.0026 -305 3.99882 0 167 305 130.002 0 -53.0023 -500 -114.999 0 32.9997 314.999 -3.99882 0 -131.002 -240.001 -100 0z"
   id="glyph8" />
   <glyph
   unicode="н"
   horiz-adv-x="504"
   d="M185.001 0l-120.003 0 87.9993 500 120.003 0 -36.9986 -209.999 134.997 0 37.0028 209.999 119.998 0 -87.9993 -500 -120.003 0 37.0028 214.999 -135.001 0 -36.9986 -214.999z"
   id="glyph9" />
   <glyph
   unicode="о"
   horiz-adv-x="480"
   d="M318.001 445c-11.3363,0 -22.3362,-2.83408 -32.9997,-8.50223 -10.6677,-5.66395 -20.8351,-15.8313 -30.5021,-30.4979 -9.66698,-14.6666 -18.8336,-34.6691 -27.4998,-59.9992 -8.66622,-25.3343 -16.3317,-57.3333 -23.0006,-96.0012 -7.33328,-38.6679 -11.1639,-70.6669 -11.5003,-96.0012 -0.332184,-25.3301 1.83332,-45.3326 6.50071,-59.9992 4.6674,-14.6666 11.3321,-24.8339 20.0025,-30.4979 8.66622,-5.66815 18.6654,-8.50223 29.9975,-8.50223 11.3321,0 22.332,2.83408 32.9997,8.50223 10.6677,5.66395 20.9991,15.8313 31.0024,30.4979 9.99916,14.6666 19.1658,34.6691 27.4998,59.9992 8.33403,25.3343 16.1635,57.3333 23.4968,96.0012 6.66891,38.6679 10.1674,70.6669 10.5037,96.0012 0.332184,25.3301 -1.83332,45.3326 -6.50071,59.9992 -4.6674,14.6666 -11.3363,24.8339 -20.0025,30.4979 -8.66622,5.66815 -18.6654,8.50223 -29.9975,8.50223zm10.9999 64.9987c32.6676,0 60.6677,-4.6674 84.0005,-13.998 23.3328,-9.33479 41.666,-24.3335 54.9996,-45.0004 13.3336,-20.6669 21.3313,-47.5023 23.9971,-80.5021 2.67009,-32.9997 0,-73.1646 -7.99765,-120.499 -8.66622,-47.3341 -20.1665,-87.4989 -34.5009,-120.499 -14.3344,-32.9997 -31.835,-59.8352 -52.4977,-80.5021 -20.6669,-20.6669 -44.1679,-35.6656 -70.5029,-45.0004 -26.3308,-9.33059 -55.8321,-13.998 -88.4997,-13.998 -32.6676,0 -60.6677,4.6674 -84.0005,13.998 -23.3328,9.33479 -41.4978,24.3335 -54.4992,45.0004 -13.0014,20.6669 -20.9991,47.5023 -24.0013,80.5021 -2.99807,32.9997 -0.16399,73.1646 8.50223,120.499 7.99765,47.3341 19.1658,87.4989 33.5001,120.499 14.3344,32.9997 31.8308,59.8352 52.4977,80.5021 20.6669,20.6669 44.1679,35.6656 70.5029,45.0004 26.3308,9.33059 55.8321,13.998 88.4997,13.998z"
   id="glyph10" />
   <glyph
   unicode="п"
   horiz-adv-x="504"
   d="M374.001 509.999c21.3313,0 40.9974,-2.1655 58.9984,-6.50071 18.001,-4.33101 32.9997,-12.4968 45.0004,-24.4975 12.0007,-12.0007 20.3347,-28.3324 24.9979,-48.9992 4.6674,-20.6669 4.00303,-47.3341 -1.99731,-80.0017l-60.9999 -350 -120.003 0 60.9999 350c3.33445,17.3324 3.66664,31.835 1.00076,43.4993 -2.66588,11.6685 -7.16508,20.9991 -13.4976,28.0002 -6.33673,7.00109 -14.0022,11.8325 -23.0006,14.5026 -9.00261,2.66588 -18.5014,3.99882 -28.5005,3.99882 -12.665,0 -24.1653,-2.00151 -34.5009,-6.00034 -10.3313,-3.99882 -18.165,-8.66622 -23.501,-14.0022l-73.9971 -419.998 -120.003 0 87.9993 500 85.0013 0 9.00261 -30.0017 4.99958 0c12.665,10.0034 28.6645,19.17 47.9985,27.4998 19.334,8.33403 43.9997,12.5011 74.0013,12.5011z"
   id="glyph11" />
   <glyph
   unicode="р"
   horiz-adv-x="490"
   d="M198.999 80.0017c3.99882,-5.33597 10.3355,-10.0034 19.0018,-14.0022 8.66622,-3.99882 19.334,-6.00034 31.999,-6.00034 12.665,0 24.9979,2.83408 36.9986,8.50223 12.0007,5.66395 23.3328,15.6673 34.0005,29.9975 10.6677,14.3344 20.5029,33.8365 29.5013,58.5022 8.9984,24.6657 16.8321,55.6639 23.501,92.9989 6.6647,37.335 9.66698,68.3332 8.9984,92.9989 -0.664368,24.6657 -3.66664,44.1679 -8.9984,58.5022 -5.33597,14.3302 -13.0014,24.3335 -23.0006,29.9975 -9.99916,5.66815 -21.3355,8.50223 -34.0005,8.50223 -12.665,0 -23.501,-2.00151 -32.4994,-6.00034 -9.00261,-3.99882 -17.5006,-8.66622 -25.5025,-14.0022l-59.9992 -339.997zm170.003 429.997c24.6657,0 46.6655,-4.6674 65.9995,-13.998 19.334,-9.33479 34.8331,-24.3335 46.4974,-45.0004 11.6685,-20.6669 18.6696,-47.5023 21.0033,-80.5021 2.32949,-32.9997 -0.500378,-73.1646 -8.50223,-120.499 -8.66622,-47.3341 -20.1665,-87.4989 -34.5009,-120.499 -14.3302,-32.9997 -30.9982,-59.8352 -50,-80.5021 -18.9976,-20.6669 -40.497,-35.6656 -64.4984,-45.0004 -24.0013,-9.33059 -49.6678,-13.998 -76.9994,-13.998 -17.3324,0 -32.8358,2.3337 -46.5016,7.00109 -13.6658,4.66319 -25.1661,10.6635 -34.5009,17.9968l-37.9993 -214.999 -119.998 0 123.997 700 85.0013 0 9.00261 -30.0017 4.99958 0c12.665,10.0034 28.3324,19.17 46.9977,27.4998 18.6654,8.33403 42.0024,12.5011 70.0025,12.5011z"
   id="glyph12" />
   <glyph
   unicode="т"
   horiz-adv-x="740"
   d="M430.002 0l-120.003 0 60.9999 350c3.33445,17.3324 3.83483,31.835 1.50114,43.4993 -2.3337,11.6685 -6.33252,20.9991 -12.0007,28.0002 -5.66815,7.00109 -12.5011,11.8325 -20.4987,14.5026 -8.00185,2.66588 -15.6673,3.99882 -23.0006,3.99882 -12.665,0 -24.1653,-2.00151 -34.5009,-6.00034 -10.3313,-3.99882 -18.165,-8.66622 -23.501,-14.0022l-73.9971 -419.998 -120.003 0 87.9993 500 85.0013 0 9.00261 -30.0017 4.99958 0c12.665,10.0034 28.6645,19.17 47.9985,27.4998 19.334,8.33403 43.9997,12.5011 74.0013,12.5011 25.3301,0 46.3334,-3.49844 62.9972,-10.4995 16.6681,-7.00109 30.0017,-16.8321 40.0008,-29.5013 17.3324,12.6692 36.9986,22.5002 59.0026,29.5013 21.9998,7.00109 47.9985,10.4995 77.996,10.4995 20.0025,0 38.6679,-2.1655 56.0003,-6.50071 17.3366,-4.33101 31.835,-12.4968 43.5035,-24.4975 11.6643,-12.0007 19.8301,-28.3324 24.4975,-48.9992 4.6674,-20.6669 3.99882,-47.3341 -1.99731,-80.0017l-61.0041 -350 -119.998 0 60.9999 350c3.33445,17.3324 3.66664,31.835 1.00076,43.4993 -2.66588,11.6685 -7.00109,20.9991 -13.0014,28.0002 -6.00034,7.00109 -13.1654,11.8325 -21.4995,14.5026 -8.33403,2.66588 -16.8321,3.99882 -25.4983,3.99882 -12.6692,0 -24.1695,-1.50114 -34.5009,-4.4992 -10.3355,-3.00227 -19.8343,-6.50071 -28.5005,-10.5037 1.33294,-7.33328 2.00151,-17.8328 2.00151,-31.4986 0,-13.6658 -1.66933,-28.1642 -4.99958,-43.4993l-60.9999 -350z"
   id="glyph13" />
   <glyph
   unicode="я"
   horiz-adv-x="469"
   d="M307.001 440.001c-9.99916,0 -20.0025,-1.33294 -30.0017,-3.99882 -9.99916,-2.67009 -19.334,-7.50147 -28.0002,-14.5026 -8.66622,-7.00109 -16.3317,-16.3317 -23.0006,-28.0002 -6.6647,-11.6643 -11.6643,-26.1668 -14.9987,-43.4993 -2.66588,-15.9995 -2.66588,-29.5013 0,-40.5012 2.66588,-10.9999 7.16508,-19.8301 13.5018,-26.499 6.33252,-6.6647 13.998,-11.3321 22.9964,-13.998 9.00261,-2.67009 18.5014,-4.00303 28.5005,-4.00303l54.9996 0 31.0024 175.002 -54.9996 0zm-113.001 -223.001c-16.6681,0.664368 -31.999,3.99882 -46.0012,9.99916 -13.998,6.00034 -25.8305,14.5026 -35.4974,25.5025 -9.66698,10.9999 -16.6681,24.6657 -20.9991,40.9974 -4.33521,16.3359 -4.50341,35.1695 -0.500378,56.5007 6.00034,32.6676 15.4991,59.3348 28.4963,80.0017 13.0014,20.6669 29.3373,36.9986 49.0034,48.9992 19.6661,12.0007 42.1663,20.1665 67.5006,24.4975 25.3301,4.33521 52.9981,6.50071 82.9997,6.50071 37.9993,0 70.3305,-1.50114 96.9977,-4.4992 26.6672,-2.99807 51.6651,-8.16584 75.0021,-15.4991l-86.002 -490.001 -119.998 0 32.9997 190.001 -19.0018 0c-25.9987,0 -47.3341,-15.0029 -63.998,-45.0004l-43.0031 -75.0021c-14.6666,-25.3301 -31.1664,-45.0004 -49.4996,-58.9984 -18.3332,-13.998 -41.4978,-20.9991 -69.4979,-20.9991 -18.001,0 -32.9997,1.66512 -45.0004,4.99958 -6.66891,1.33294 -12.665,2.99807 -18.001,4.99958l8.00185 50c17.3324,0 30.666,3.16626 40.0008,9.49878 9.33059,6.33252 16.3317,13.1696 20.9991,20.5029l35.9978 64.9987c12.6692,22.6642 24.8339,38.6679 36.5024,47.9985 11.6643,9.33479 25.4983,15.9995 41.4978,20.0025l1.00076 3.99882z"
   id="glyph14" />
  </font><font
       id="FontID0"
       horiz-adv-x="507"
       font-variant="normal"
       style="fill-rule:nonzero"
       font-weight="400"
       horiz-origin-x="0"
       horiz-origin-y="0"
       vert-origin-x="512"
       vert-origin-y="768"
       vert-adv-y="1024">
	<font-face
   font-family="Impact"
   id="font-face14">
		<font-face-src>
			<font-face-name
   name="Impact" />
		</font-face-src>
	</font-face>
   <missing-glyph
   id="missing-glyph14"><path
     d="M0 0z"
     id="path14" /></missing-glyph>
   <glyph
   unicode="К"
   horiz-adv-x="536"
   d="M40.9998 791l205.999 0 1.00026 -334c38.167,1.00026 57.8345,22.5004 59.167,64.5005l3.83313 154.333c1.33427,56.8343 12.3335,95.3334 32.9996,115.167l190.001 0c-18.3333,-19.1656 -27.3338,-58.9991 -26.9998,-119.166l1.00026 -135.667c0.666243,-81.9997 -45.501,-128.833 -138.668,-140.166 93.1668,-11.3333 139.334,-58.833 138.668,-142.167l-1.00026 -125.832c-0.334014,-60.0011 8.66651,-102.667 26.9998,-128.001l-190.001 0c-21.9985,19.8337 -32.9996,58.3329 -32.9996,115.333l0 154.166c0,19.6676 -5.83364,35.3341 -17.4991,47.1675 -11.8334,11.8334 -26.9998,17.9993 -45.501,18.3333l-1.00026 -335 -205.999 0 0 791z"
   id="glyph15" />
   <glyph
   unicode="Т"
   horiz-adv-x="461"
   d="M454.999 791l0 -158 -120.999 0 0 -633 -205.999 0 0 633 -122.001 0 0 158 448.999 0z"
   id="glyph16" />
   <glyph
   unicode="и"
   horiz-adv-x="558"
   d="M524.001 0l-172.001 0 0 350.167 -137.166 -350.167 -179.834 0 0 648.001 172 0 0 -347.168 134.833 347.168 182.168 0 0 -648.001z"
   id="glyph17" />
   <glyph
   unicode="к"
   horiz-adv-x="511"
   d="M230 647.833l0 -251.833c41.3338,0 61.9999,22.0003 61.9999,65.833l0 109.834c0,44.1667 7.33403,69.6661 22.0003,76.166l189.999 0c-14.6663,-21.1662 -21.9985,-52.4992 -21.9985,-93.6652l0 -90.3339c0,-31.501 -12.8337,-57.6666 -38.501,-78.5005 -9.50066,-7.83237 -29.3325,-18.8334 -59.6671,-33.1657 -19.4997,-9.50066 -41.5,-14.5002 -65.9991,-15.1682 11.4994,-1.99873 32.8334,-7.33224 64.0004,-16.1667 67.4995,-21.3323 101.165,-58.9991 101.165,-112.666l0 -113.667c0,-41.6661 7.33403,-73.1652 22.0003,-94.1653l-189.999 0c-14.6681,19.8319 -22.0003,45.1652 -22.0003,75.9999l0 136.833c0,43.8327 -21,65.833 -63.0001,65.833l0 -278.666 -195 0 0 647.499 195 0z"
   id="glyph18" />
   <glyph
   unicode="м"
   horiz-adv-x="683"
   d="M648.001 0l-169.001 0 0 446.833 -82.1658 -446.833 -108.001 0 -84.8325 446.833 0 -446.833 -169.001 0 0 648.001 244.332 0 63.168 -359.001 57.4987 359.001 248.001 0 0 -648.001z"
   id="glyph19" />
   <glyph
   unicode="о"
   horiz-adv-x="511"
   d="M481 420.499l0 -158.832c0,-58.3346 -3.00077,-101.001 -8.83441,-128.335 -5.83186,-27.1659 -18.3333,-52.4992 -37.4989,-76.166 -19.1674,-23.6668 -43.8345,-40.9998 -74.0012,-52.3331 -30.1667,-11.1672 -64.6666,-16.8329 -103.666,-16.8329 -43.6666,0 -80.6672,4.83339 -110.834,14.3323 -30.3328,9.66677 -53.8335,24.1669 -70.5003,43.5005 -16.8329,19.4997 -28.8324,43.0003 -35.9985,70.5003 -7.16791,27.4999 -10.667,68.8338 -10.667,123.834l0 166.166c0,60.3334 6.49989,107.333 19.4997,141.333 12.9998,33.8337 36.5005,61.0014 70.3342,81.5013 33.8319,20.4999 77.1663,30.8329 129.833,30.8329 44.1649,0 82.1658,-6.666 113.999,-19.8337 31.6671,-13.1659 56.1662,-30.3328 73.501,-51.499 17.1651,-21.1679 28.9985,-43.0003 35.3323,-65.5008 6.33377,-22.5004 9.50066,-56.6664 9.50066,-102.667zm-197.001 48.834c0,33.1675 -1.83261,54.1675 -5.33351,62.6661 -3.66701,8.66651 -11.3333,13.0016 -23.1667,13.0016 -11.8334,0 -19.6658,-4.33504 -23.6668,-13.0016 -3.83313,-8.49861 -5.83364,-29.4987 -5.83364,-62.6661l0 -292.5c0,-30.6668 2.00051,-50.6666 5.83364,-59.8332 4.00103,-9.33276 11.6673,-14 23.1667,-14 11.8334,0 19.4997,4.16714 23.3346,12.6675 3.83313,8.49861 5.66574,26.6658 5.66574,54.6658l0 299z"
   id="glyph20" />
   <glyph
   unicode="р"
   horiz-adv-x="518"
   d="M235.5 648.001l-3.49911 -57.3344c17.6653,23.3346 36.9988,40.6676 58.1667,52.167 21.1662,11.4994 44.3328,17.1669 69.3321,17.1669 30.6668,0 57.1665,-8.16639 79.5008,-24.6671 22.1664,-16.4989 36.1664,-35.5002 41.6661,-57.0004 5.49963,-21.5002 8.33429,-57.9988 8.33429,-109.5l0 -273.167c0,-58.9991 -3.5009,-100.833 -10.5009,-125.832 -7.00001,-24.8332 -21.3341,-44.8347 -43.0003,-59.6671 -21.6663,-14.8342 -47.8319,-22.1664 -78.4988,-22.1664 -24.3348,0 -47.0014,5.66574 -67.8335,17.1669 -20.8339,11.4994 -39.8335,28.4984 -57.1665,51.1667l0 -148.335 -197.001 0 0 740.001 200.5 0zm56.5002 -188.5c0,40.1657 -1.50039,64.3326 -4.49937,72.833 -2.83466,8.5004 -11.001,12.6675 -24.5009,12.6675 -13.1659,0 -21.5002,-4.83339 -25.3333,-14.6681 -3.83313,-9.66677 -5.66574,-33.3336 -5.66574,-70.8325l0 -268.667c0,-38.9993 1.99873,-63.5003 5.83186,-73.167 4.00103,-9.83289 12.5014,-14.6663 25.6673,-14.6663 12.8337,0 20.666,4.50116 23.8329,13.4999 3.16689,8.83441 4.66727,30.6668 4.66727,65.1668l0 277.834z"
   id="glyph21" />
   <glyph
   unicode="т"
   horiz-adv-x="430"
   d="M426.001 648.001l0 -136.001 -113 0 0 -512 -197.001 0 0 512 -112.999 0 0 136.001 423 0z"
   id="glyph22" />
   <glyph
   unicode="ф"
   horiz-adv-x="768"
   d="M738 195.832c0,-45.3331 -2.66676,-81.4995 -8.00027,-108.665 -5.33351,-27.1677 -17.8332,-49.0001 -37.3328,-65.5008 -19.3335,-16.4989 -49.168,-24.6671 -89.0015,-24.6671 -51.833,0 -92.4988,19.6676 -121.665,59.0009l0 -149.001 -196 0 0 148.167c-31.501,-39.4994 -74.1673,-59.1652 -127.833,-59.1652 -35.0001,0 -62.834,6.83211 -83.3339,20.4999 -20.4999,13.666 -33.1675,32.4994 -38.3331,56.4985 -5.00129,23.8347 -7.50014,58.5008 -7.50014,103.668l0 273.501c0,45.3331 2.83287,81.4995 8.3325,108.665 5.49963,27.1677 18.0011,49.0001 37.5007,65.5008 19.4997,16.4989 49.3323,24.6671 89.1658,24.6671 52.167,0 92.6667,-19.6676 122.001,-59.167l0 159.166 196 0 0 -158.166c31.4992,39.4994 73.9994,59.1652 127.499,59.1652 35.0001,0 62.834,-6.83211 83.1678,-20.4999 20.4999,-13.666 33.1657,-32.4994 37.9991,-56.5002 4.83339,-23.8329 7.33403,-58.499 7.33403,-103.666l0 -273.501zm-197.001 -43.9988l0 308.167c0,31.6671 -0.166114,50.8327 -0.500129,57.6666 -0.332228,6.83211 -2.49886,13.1659 -6.666,18.8334 -4.16714,5.66574 -11.1672,8.5004 -21.1662,8.5004 -10.8349,0 -18.6673,-4.00103 -23.5007,-12.0013 -4.83339,-8.00027 -7.16613,-22.1664 -7.16613,-42.6663l0 -337.499c0,-33.1675 10.4991,-49.8342 31.6653,-49.8342 9.00053,0 15.6665,3.333 20.3338,9.83289 4.66727,6.49989 7.00001,19.5014 7.00001,39.0011zm-254.999 3.83313l0 337.499c0,33.1675 -10.667,49.8342 -32.1672,49.8342 -9.16664,0 -16.0005,-3.333 -20.8339,-9.83289 -4.66549,-6.50167 -7.00001,-19.5014 -7.00001,-39.0011l0 -308.167c0,-31.6671 0.1679,-50.8327 0.500129,-57.6666 0.334014,-6.83211 2.66676,-13.1659 6.8339,-18.8334 4.16714,-5.66574 11.3333,-8.5004 21.5002,-8.5004 10.9993,0 18.9995,4.00103 23.8329,12.0013 4.83339,8.00027 7.33403,22.1664 7.33403,42.6663z"
   id="glyph23" />
  </font><style
       type="text/css"
       id="style23">
   <![CDATA[
    @font-face { font-family:"Cuprum";font-variant:normal;font-style:normal,italic;font-weight:bold;src:url("#FontID1") format(svg)}
    @font-face { font-family:"Impact";font-variant:normal;font-weight:normal;src:url("#FontID0") format(svg)}
    .fil0 {fill:white}
    .fnt0 {font-weight:normal;font-size:5598.56px;font-family:'Impact'}
    .fnt1 {font-style:italic;font-weight:bold;font-size:2378.2px;font-family:'Cuprum'}
   ]]>
  </style><font
       id="FontID1-4"
       horiz-adv-x="540"
       font-variant="normal"
       style="fill-rule:nonzero"
       font-style="normal,italic"
       font-weight="700"
       horiz-origin-x="0"
       horiz-origin-y="0"
       vert-origin-x="512"
       vert-origin-y="768"
       vert-adv-y="1024">
	<font-face
   font-family="Cuprum"
   id="font-face1-8">
		<font-face-src>
			<font-face-name
   name="Cuprum Bold Italic" />
		</font-face-src>
	</font-face>
   <missing-glyph
   id="missing-glyph1-3"><path
     d="M0 0z"
     id="path1-9" /></missing-glyph>
   <glyph
   unicode="-"
   horiz-adv-x="380"
   d="M89.0001 340.001l319.998 0 -13.998 -80.0017 -320.003 0 14.0022 80.0017z"
   id="glyph1-0" />
   <glyph
   unicode="а"
   horiz-adv-x="490"
   d="M336.999 440.001c-15.3309,0 -29.4971,-2.83408 -42.4985,-8.50223 -13.0014,-5.66395 -25.1661,-15.6673 -36.4982,-29.9975 -11.3363,-14.3344 -21.5037,-33.8365 -30.5021,-58.5022 -8.9984,-24.6657 -16.8321,-55.6639 -23.501,-92.9989 -6.6647,-37.335 -9.83096,-68.3332 -9.49878,-92.9989 0.332184,-24.6657 3.16626,-44.1679 8.49802,-58.5022 5.33597,-14.3302 13.0014,-24.3335 23.0006,-29.9975 10.0034,-5.66815 21.3355,-8.50223 34.0005,-8.50223 12.6692,0 24.1695,2.00151 34.5009,6.00034 10.3313,3.99882 18.5014,8.66622 24.5017,14.0022l62.9972 359.999 -45.0004 0zm87.9993 -440.001l-84.9971 0 -9.99916 30.0017 -5.00378 0c-12.665,-10.0034 -28.3324,-19.17 -46.9977,-27.4998 -18.6654,-8.33403 -41.9981,-12.5011 -69.9983,-12.5011 -25.3343,0 -47.5023,4.6674 -66.4999,13.998 -19.0018,9.33479 -34.1687,24.3335 -45.5008,45.0004 -11.3363,20.6669 -18.3332,47.5023 -21.0033,80.5021 -2.66588,32.9997 0.336389,73.1646 9.00261,120.499 7.99765,47.3341 19.334,87.4989 34.0005,120.499 14.6666,32.9997 32.8316,59.8352 54.4992,80.5021 21.6676,20.6669 47.1659,35.6656 76.499,45.0004 29.3331,9.33059 62.6692,13.998 100,13.998 35.3334,0 64.9987,-2.49769 89.0001,-7.49727 24.0013,-5.00378 47.6663,-12.5011 70.9991,-22.5002l-84.0005 -480.002z"
   id="glyph2-5" />
   <glyph
   unicode="в"
   horiz-adv-x="490"
   d="M255 59.9992c11.3321,0 22.332,1.33294 32.9997,3.99882 10.6677,2.67009 20.4987,7.33328 29.5013,14.0022 8.9984,6.6647 16.8321,15.4991 23.501,26.499 6.6647,10.9999 11.3321,24.5017 13.998,40.5012 5.33176,29.9975 0.500378,50.8326 -14.4984,62.5011 -15.0029,11.6643 -33.8365,17.4964 -56.5007,17.4964l-59.9992 0 -29.0009 -164.999 59.9992 0zm7.00109 380.002l-25.0021 -145 50 0c19.334,0 37.5032,5.33176 54.5034,15.9995 16.996,10.6677 27.832,28.6687 32.4994,53.9988 2.66588,14.0022 2.49769,25.6665 -0.500378,35.0013 -3.00227,9.33479 -7.50147,17.0003 -13.5018,23.0006 -6.00034,6.00034 -13.3336,10.3313 -21.9998,13.0014 -8.66622,2.66588 -17.3324,3.99882 -25.9987,3.99882l-50 0zm-111 50c26.6672,7.33328 53.3345,12.5011 79.9975,15.4991 26.6672,2.99807 57.6697,4.4992 93.0031,4.4992 32.6634,0 60.9999,-2.1655 84.9971,-6.50071 24.0013,-4.33101 43.5035,-11.8325 58.5022,-22.5002 14.9987,-10.6635 25.3343,-24.9979 30.9982,-42.9989 5.66815,-18.001 6.16853,-40.6652 1.50114,-68.001 -3.33445,-15.9995 -8.49802,-29.8335 -15.4991,-41.4978 -7.00109,-11.6685 -15.0029,-21.4995 -24.0013,-29.5013 -8.9984,-7.99765 -18.6654,-14.4984 -29.0009,-19.4979 -10.3313,-4.99958 -20.1665,-9.1666 -29.4971,-12.5011l-1.00076 -3.99882c10.6677,-3.33445 21.3313,-8.00185 31.999,-14.0022 10.6677,-6.00034 19.9983,-13.998 28.0002,-24.0013 8.00185,-9.99916 13.834,-21.9998 17.5006,-35.9978 3.66664,-14.0022 3.83483,-30.3339 0.500378,-48.9992 -5.33597,-30.0017 -14.0022,-54.6674 -26.0029,-74.0013 -11.9965,-19.334 -27.832,-34.6649 -47.4981,-46.0012 -19.6661,-11.3321 -42.9989,-19.1658 -69.9983,-23.4968 -27.0036,-4.33521 -57.8337,-6.50071 -92.5027,-6.50071 -40.0008,0 -73.501,1.50114 -100.5,4.4992 -26.9994,2.99807 -52.4977,8.16584 -76.499,15.4991l85.0013 480.002z"
   id="glyph3-2" />
   <glyph
   unicode="г"
   horiz-adv-x="414"
   d="M331.999 380.002c3.33445,19.9983 -2.99807,34.9971 -18.9976,44.9962 -15.9995,10.0034 -38.0035,15.0029 -65.9995,15.0029l-110.003 0 9.00261 50c15.9995,5.33176 35.8338,9.99916 59.4988,13.998 23.665,4.00303 48.1667,6.00034 73.501,6.00034 31.3304,0 58.6662,-2.1655 81.999,-6.50071 23.3328,-4.33101 42.4985,-11.8325 57.5015,-22.5002 14.9987,-10.6635 25.1661,-24.9979 30.4979,-42.9989 5.33597,-18.001 5.66815,-40.6652 1.00076,-68.001 -4.6674,-28.6645 -14.4984,-51.9973 -29.5013,-69.9983 -14.9987,-18.001 -32.1672,-32.8316 -51.4969,-44.5 -19.334,-11.6685 -40.0008,-21.4995 -62.0007,-29.5013 -21.9998,-7.99765 -42.5027,-16.1635 -61.5003,-24.4975 -19.0018,-8.33403 -35.1695,-18.001 -48.4989,-29.0009 -13.3336,-10.9999 -21.6676,-25.1661 -25.0021,-42.4985 -3.99882,-25.3343 2.66588,-43.3353 19.9983,-54.003 17.3366,-10.6635 45.0004,-15.9995 82.9997,-15.9995l110.003 0 -9.00261 -50c-15.3309,-5.33176 -34.9971,-9.99916 -58.9984,-13.998 -24.0013,-4.00303 -48.6671,-6.00034 -74.0013,-6.00034 -35.9978,0 -67.1642,2.1655 -93.4993,6.50071 -26.335,4.33101 -47.4981,12.1647 -63.4976,23.4968 -16.0037,11.3363 -26.6672,26.6672 -32.0032,46.0012 -5.33176,19.334 -5.33176,43.9997 0,74.0013 4.6674,28.6645 14.5026,51.9973 29.5013,69.9983 14.9987,18.001 32.1672,32.8358 51.5011,44.5 19.334,11.6685 39.9966,21.4995 62.0007,29.5013 21.9998,7.99765 42.4985,16.1677 61.4961,24.4975 19.0018,8.33403 35.1695,18.001 48.5031,29.0009 13.3336,10.9999 21.6676,25.1661 24.9979,42.5027z"
   id="glyph4-2" />
   <glyph
   unicode="ж"
   horiz-adv-x="669"
   d="M483 500l-35.9978 -200 4.99958 0c7.33328,0 14.9987,3.49844 22.9964,10.4995 8.00185,7.00109 18.6696,21.8358 32.0032,44.5l42.9989 75.0021c14.6666,25.3301 31.4986,44.9962 50.5004,58.9984 18.9976,13.998 43.4993,20.9991 73.501,20.9991 8.66622,0 16.8321,-0.500378 24.4975,-1.50114 7.66967,-0.996552 14.5026,-2.1655 20.5029,-3.49844 7.33328,-2.00151 13.6658,-3.66664 18.9976,-4.99958l-8.9984 -50c-17.3324,0 -30.666,-3.16626 -40.0008,-9.49878 -9.33479,-6.33252 -15.9995,-13.1696 -19.9983,-20.5029l-37.0028 -64.9987c-15.3309,-28.0002 -30.3339,-48.6671 -45.0004,-62.0007 -14.6666,-13.3336 -29.9975,-21.9998 -45.997,-25.9987l-1.00076 -3.99882c17.3324,-4.00303 32.6676,-13.0014 46.0012,-26.9994 13.3294,-14.0022 20.9991,-36.002 22.9964,-66.0037l6.00034 -79.9975c1.33294,-9.99916 6.16853,-19.1658 14.5026,-27.4998 8.33403,-8.33403 21.1673,-12.5011 38.4997,-12.5011l-8.00185 -50c-6.00034,-2.00151 -12.665,-3.66664 -19.9983,-4.99958 -13.3336,-3.33445 -29.0009,-4.99958 -47.0019,-4.99958 -32.6676,0 -56.9969,7.83366 -73.0006,23.501 -15.9995,15.6631 -24.9979,36.166 -26.9994,61.4961l-8.9984 95.0004c-1.33294,17.3366 -6.00034,30.8342 -14.0022,40.5012 -7.99765,9.66698 -18.3332,14.4984 -30.9982,14.4984l-4.99958 0 -39.0001 -224.998 -120.003 0 39.0001 224.998 -4.99958 0c-26.663,0 -48.3307,-18.3332 -64.9987,-54.9996l-41.0016 -95.0004c-11.3321,-25.3301 -27.6638,-45.833 -48.9992,-61.4961 -21.3313,-15.6673 -48.3307,-23.501 -80.9982,-23.501 -18.001,0 -32.9997,1.66512 -45.0004,4.99958 -6.66891,1.33294 -12.665,2.99807 -18.001,4.99958l8.00185 50c17.3324,0 31.8308,4.16702 43.4993,12.5011 11.6643,8.33403 19.4979,17.5006 23.501,27.4998l34.0005 79.9975c13.3336,30.0017 28.9967,52.0015 46.9977,66.0037 18.001,13.998 36.6664,22.9964 56.0003,26.9994l1.00076 3.99882c-15.3351,3.99882 -28.0002,12.665 -37.9993,25.9987 -10.0034,13.3336 -17.6688,34.0005 -23.0006,62.0007l-13.0014 64.9987c-1.99731,7.33328 -6.50071,14.1704 -13.4976,20.5029 -7.00109,6.33252 -19.17,9.49878 -36.5024,9.49878l9.00261 50 19.9983 4.99958c6.00034,1.33294 12.8332,2.50189 20.4987,3.49844 7.66967,1.00076 16.1677,1.50114 25.5025,1.50114 29.9975,0 52.1655,-7.00109 66.4999,-20.9991 14.3302,-14.0022 24.1653,-33.6683 29.4971,-58.9984l17.0003 -75.0021c5.33597,-22.6642 10.6677,-37.4989 15.9995,-44.5 5.33597,-7.00109 11.6685,-10.4995 19.0018,-10.4995l4.99958 0 36.002 200 119.998 0z"
   id="glyph5-7" />
   <glyph
   unicode="и"
   horiz-adv-x="504"
   d="M218.001 -9.99916c-21.3355,0 -41.0016,2.1655 -59.0026,6.50071 -17.9968,4.33101 -32.9997,12.4968 -45.0004,24.4975 -11.9965,12.0007 -20.3305,28.3324 -24.9979,48.9992 -4.6674,20.6669 -3.99882,47.3341 2.00151,80.0017l61.9965 350 120.003 0 -62.0007 -350c-3.33445,-17.3324 -3.66664,-31.835 -1.00076,-43.4993 2.66588,-11.6685 7.16929,-20.9991 13.5018,-28.0002 6.33252,-7.00109 13.998,-11.8325 23.0006,-14.5026 8.9984,-2.66588 18.4972,-3.99882 28.4963,-3.99882 12.6692,0 24.1695,2.00151 34.5009,6.00034 10.3355,3.99882 18.5014,8.66622 24.5017,14.0022l74.0013 419.998 119.998 0 -87.9993 -500 -85.0013 0 -9.99916 30.0017 -4.99958 0c-12.6692,-10.0034 -28.6687,-19.17 -48.0027,-27.4998 -19.3297,-8.33403 -43.9997,-12.5011 -73.9971,-12.5011z"
   id="glyph6-3" />
   <glyph
   unicode="к"
   horiz-adv-x="469"
   d="M340.001 263.001c17.3324,-4.00303 32.6676,-13.0014 46.0012,-26.9994 13.3294,-14.0022 20.9991,-36.002 22.9964,-66.0037l6.00034 -79.9975c1.33294,-9.99916 6.16853,-19.1658 14.5026,-27.4998 8.33403,-8.33403 21.1673,-12.5011 38.4997,-12.5011l-8.00185 -50c-6.00034,-2.00151 -12.665,-3.66664 -19.9983,-4.99958 -13.3336,-3.33445 -29.0009,-4.99958 -47.0019,-4.99958 -32.6676,0 -56.9969,7.83366 -73.0006,23.501 -15.9995,15.6631 -24.9979,36.166 -26.9994,61.4961l-8.9984 95.0004c-1.33294,17.3366 -6.00034,30.8342 -14.0022,40.5012 -7.99765,9.66698 -18.3332,14.4984 -30.9982,14.4984l-14.9987 0 -39.0001 -224.998 -120.003 0 87.9993 500 120.003 0 -36.002 -200 15.0029 0c7.33328,0 14.9987,3.49844 22.9964,10.4995 8.00185,7.00109 18.6696,21.8358 32.0032,44.5l42.9989 75.0021c14.6666,25.3301 31.4986,44.9962 50.5004,58.9984 18.9976,13.998 43.4993,20.9991 73.501,20.9991 8.66622,0 16.8321,-0.500378 24.4975,-1.50114 7.66967,-0.996552 14.5026,-2.1655 20.5029,-3.49844 7.33328,-2.00151 13.6658,-3.66664 18.9976,-4.99958l-8.9984 -50c-17.3324,0 -30.666,-3.16626 -40.0008,-9.49878 -9.33479,-6.33252 -15.9995,-13.1696 -19.9983,-20.5029l-37.0028 -64.9987c-15.3309,-28.0002 -30.3339,-48.6671 -45.0004,-62.0007 -14.6666,-13.3336 -29.9975,-21.9998 -45.997,-25.9987l-1.00076 -3.99882z"
   id="glyph7-7" />
   <glyph
   unicode="м"
   horiz-adv-x="659"
   d="M292.999 74.9979l-46.9977 240.001 -4.00303 0 -76.9994 -314.999 -114.999 0 123.001 500 129.997 0 59.0026 -305 3.99882 0 167 305 130.002 0 -53.0023 -500 -114.999 0 32.9997 314.999 -3.99882 0 -131.002 -240.001 -100 0z"
   id="glyph8-9" />
   <glyph
   unicode="н"
   horiz-adv-x="504"
   d="M185.001 0l-120.003 0 87.9993 500 120.003 0 -36.9986 -209.999 134.997 0 37.0028 209.999 119.998 0 -87.9993 -500 -120.003 0 37.0028 214.999 -135.001 0 -36.9986 -214.999z"
   id="glyph9-0" />
   <glyph
   unicode="о"
   horiz-adv-x="480"
   d="M318.001 445c-11.3363,0 -22.3362,-2.83408 -32.9997,-8.50223 -10.6677,-5.66395 -20.8351,-15.8313 -30.5021,-30.4979 -9.66698,-14.6666 -18.8336,-34.6691 -27.4998,-59.9992 -8.66622,-25.3343 -16.3317,-57.3333 -23.0006,-96.0012 -7.33328,-38.6679 -11.1639,-70.6669 -11.5003,-96.0012 -0.332184,-25.3301 1.83332,-45.3326 6.50071,-59.9992 4.6674,-14.6666 11.3321,-24.8339 20.0025,-30.4979 8.66622,-5.66815 18.6654,-8.50223 29.9975,-8.50223 11.3321,0 22.332,2.83408 32.9997,8.50223 10.6677,5.66395 20.9991,15.8313 31.0024,30.4979 9.99916,14.6666 19.1658,34.6691 27.4998,59.9992 8.33403,25.3343 16.1635,57.3333 23.4968,96.0012 6.66891,38.6679 10.1674,70.6669 10.5037,96.0012 0.332184,25.3301 -1.83332,45.3326 -6.50071,59.9992 -4.6674,14.6666 -11.3363,24.8339 -20.0025,30.4979 -8.66622,5.66815 -18.6654,8.50223 -29.9975,8.50223zm10.9999 64.9987c32.6676,0 60.6677,-4.6674 84.0005,-13.998 23.3328,-9.33479 41.666,-24.3335 54.9996,-45.0004 13.3336,-20.6669 21.3313,-47.5023 23.9971,-80.5021 2.67009,-32.9997 0,-73.1646 -7.99765,-120.499 -8.66622,-47.3341 -20.1665,-87.4989 -34.5009,-120.499 -14.3344,-32.9997 -31.835,-59.8352 -52.4977,-80.5021 -20.6669,-20.6669 -44.1679,-35.6656 -70.5029,-45.0004 -26.3308,-9.33059 -55.8321,-13.998 -88.4997,-13.998 -32.6676,0 -60.6677,4.6674 -84.0005,13.998 -23.3328,9.33479 -41.4978,24.3335 -54.4992,45.0004 -13.0014,20.6669 -20.9991,47.5023 -24.0013,80.5021 -2.99807,32.9997 -0.16399,73.1646 8.50223,120.499 7.99765,47.3341 19.1658,87.4989 33.5001,120.499 14.3344,32.9997 31.8308,59.8352 52.4977,80.5021 20.6669,20.6669 44.1679,35.6656 70.5029,45.0004 26.3308,9.33059 55.8321,13.998 88.4997,13.998z"
   id="glyph10-2" />
   <glyph
   unicode="п"
   horiz-adv-x="504"
   d="M374.001 509.999c21.3313,0 40.9974,-2.1655 58.9984,-6.50071 18.001,-4.33101 32.9997,-12.4968 45.0004,-24.4975 12.0007,-12.0007 20.3347,-28.3324 24.9979,-48.9992 4.6674,-20.6669 4.00303,-47.3341 -1.99731,-80.0017l-60.9999 -350 -120.003 0 60.9999 350c3.33445,17.3324 3.66664,31.835 1.00076,43.4993 -2.66588,11.6685 -7.16508,20.9991 -13.4976,28.0002 -6.33673,7.00109 -14.0022,11.8325 -23.0006,14.5026 -9.00261,2.66588 -18.5014,3.99882 -28.5005,3.99882 -12.665,0 -24.1653,-2.00151 -34.5009,-6.00034 -10.3313,-3.99882 -18.165,-8.66622 -23.501,-14.0022l-73.9971 -419.998 -120.003 0 87.9993 500 85.0013 0 9.00261 -30.0017 4.99958 0c12.665,10.0034 28.6645,19.17 47.9985,27.4998 19.334,8.33403 43.9997,12.5011 74.0013,12.5011z"
   id="glyph11-3" />
   <glyph
   unicode="р"
   horiz-adv-x="490"
   d="M198.999 80.0017c3.99882,-5.33597 10.3355,-10.0034 19.0018,-14.0022 8.66622,-3.99882 19.334,-6.00034 31.999,-6.00034 12.665,0 24.9979,2.83408 36.9986,8.50223 12.0007,5.66395 23.3328,15.6673 34.0005,29.9975 10.6677,14.3344 20.5029,33.8365 29.5013,58.5022 8.9984,24.6657 16.8321,55.6639 23.501,92.9989 6.6647,37.335 9.66698,68.3332 8.9984,92.9989 -0.664368,24.6657 -3.66664,44.1679 -8.9984,58.5022 -5.33597,14.3302 -13.0014,24.3335 -23.0006,29.9975 -9.99916,5.66815 -21.3355,8.50223 -34.0005,8.50223 -12.665,0 -23.501,-2.00151 -32.4994,-6.00034 -9.00261,-3.99882 -17.5006,-8.66622 -25.5025,-14.0022l-59.9992 -339.997zm170.003 429.997c24.6657,0 46.6655,-4.6674 65.9995,-13.998 19.334,-9.33479 34.8331,-24.3335 46.4974,-45.0004 11.6685,-20.6669 18.6696,-47.5023 21.0033,-80.5021 2.32949,-32.9997 -0.500378,-73.1646 -8.50223,-120.499 -8.66622,-47.3341 -20.1665,-87.4989 -34.5009,-120.499 -14.3302,-32.9997 -30.9982,-59.8352 -50,-80.5021 -18.9976,-20.6669 -40.497,-35.6656 -64.4984,-45.0004 -24.0013,-9.33059 -49.6678,-13.998 -76.9994,-13.998 -17.3324,0 -32.8358,2.3337 -46.5016,7.00109 -13.6658,4.66319 -25.1661,10.6635 -34.5009,17.9968l-37.9993 -214.999 -119.998 0 123.997 700 85.0013 0 9.00261 -30.0017 4.99958 0c12.665,10.0034 28.3324,19.17 46.9977,27.4998 18.6654,8.33403 42.0024,12.5011 70.0025,12.5011z"
   id="glyph12-9" />
   <glyph
   unicode="т"
   horiz-adv-x="740"
   d="M430.002 0l-120.003 0 60.9999 350c3.33445,17.3324 3.83483,31.835 1.50114,43.4993 -2.3337,11.6685 -6.33252,20.9991 -12.0007,28.0002 -5.66815,7.00109 -12.5011,11.8325 -20.4987,14.5026 -8.00185,2.66588 -15.6673,3.99882 -23.0006,3.99882 -12.665,0 -24.1653,-2.00151 -34.5009,-6.00034 -10.3313,-3.99882 -18.165,-8.66622 -23.501,-14.0022l-73.9971 -419.998 -120.003 0 87.9993 500 85.0013 0 9.00261 -30.0017 4.99958 0c12.665,10.0034 28.6645,19.17 47.9985,27.4998 19.334,8.33403 43.9997,12.5011 74.0013,12.5011 25.3301,0 46.3334,-3.49844 62.9972,-10.4995 16.6681,-7.00109 30.0017,-16.8321 40.0008,-29.5013 17.3324,12.6692 36.9986,22.5002 59.0026,29.5013 21.9998,7.00109 47.9985,10.4995 77.996,10.4995 20.0025,0 38.6679,-2.1655 56.0003,-6.50071 17.3366,-4.33101 31.835,-12.4968 43.5035,-24.4975 11.6643,-12.0007 19.8301,-28.3324 24.4975,-48.9992 4.6674,-20.6669 3.99882,-47.3341 -1.99731,-80.0017l-61.0041 -350 -119.998 0 60.9999 350c3.33445,17.3324 3.66664,31.835 1.00076,43.4993 -2.66588,11.6685 -7.00109,20.9991 -13.0014,28.0002 -6.00034,7.00109 -13.1654,11.8325 -21.4995,14.5026 -8.33403,2.66588 -16.8321,3.99882 -25.4983,3.99882 -12.6692,0 -24.1695,-1.50114 -34.5009,-4.4992 -10.3355,-3.00227 -19.8343,-6.50071 -28.5005,-10.5037 1.33294,-7.33328 2.00151,-17.8328 2.00151,-31.4986 0,-13.6658 -1.66933,-28.1642 -4.99958,-43.4993l-60.9999 -350z"
   id="glyph13-9" />
   <glyph
   unicode="я"
   horiz-adv-x="469"
   d="M307.001 440.001c-9.99916,0 -20.0025,-1.33294 -30.0017,-3.99882 -9.99916,-2.67009 -19.334,-7.50147 -28.0002,-14.5026 -8.66622,-7.00109 -16.3317,-16.3317 -23.0006,-28.0002 -6.6647,-11.6643 -11.6643,-26.1668 -14.9987,-43.4993 -2.66588,-15.9995 -2.66588,-29.5013 0,-40.5012 2.66588,-10.9999 7.16508,-19.8301 13.5018,-26.499 6.33252,-6.6647 13.998,-11.3321 22.9964,-13.998 9.00261,-2.67009 18.5014,-4.00303 28.5005,-4.00303l54.9996 0 31.0024 175.002 -54.9996 0zm-113.001 -223.001c-16.6681,0.664368 -31.999,3.99882 -46.0012,9.99916 -13.998,6.00034 -25.8305,14.5026 -35.4974,25.5025 -9.66698,10.9999 -16.6681,24.6657 -20.9991,40.9974 -4.33521,16.3359 -4.50341,35.1695 -0.500378,56.5007 6.00034,32.6676 15.4991,59.3348 28.4963,80.0017 13.0014,20.6669 29.3373,36.9986 49.0034,48.9992 19.6661,12.0007 42.1663,20.1665 67.5006,24.4975 25.3301,4.33521 52.9981,6.50071 82.9997,6.50071 37.9993,0 70.3305,-1.50114 96.9977,-4.4992 26.6672,-2.99807 51.6651,-8.16584 75.0021,-15.4991l-86.002 -490.001 -119.998 0 32.9997 190.001 -19.0018 0c-25.9987,0 -47.3341,-15.0029 -63.998,-45.0004l-43.0031 -75.0021c-14.6666,-25.3301 -31.1664,-45.0004 -49.4996,-58.9984 -18.3332,-13.998 -41.4978,-20.9991 -69.4979,-20.9991 -18.001,0 -32.9997,1.66512 -45.0004,4.99958 -6.66891,1.33294 -12.665,2.99807 -18.001,4.99958l8.00185 50c17.3324,0 30.666,3.16626 40.0008,9.49878 9.33059,6.33252 16.3317,13.1696 20.9991,20.5029l35.9978 64.9987c12.6692,22.6642 24.8339,38.6679 36.5024,47.9985 11.6643,9.33479 25.4983,15.9995 41.4978,20.0025l1.00076 3.99882z"
   id="glyph14-7" />
  </font><font
       id="FontID0-0"
       horiz-adv-x="507"
       font-variant="normal"
       style="fill-rule:nonzero"
       font-style="normal"
       font-weight="400"
       horiz-origin-x="0"
       horiz-origin-y="0"
       vert-origin-x="512"
       vert-origin-y="768"
       vert-adv-y="1024">
	<font-face
   font-family="Impact"
   id="font-face14-3">
		<font-face-src>
			<font-face-name
   name="Impact" />
		</font-face-src>
	</font-face>
   <missing-glyph
   id="missing-glyph14-9"><path
     d="M0 0z"
     id="path14-8" /></missing-glyph>
   <glyph
   unicode="К"
   horiz-adv-x="536"
   d="M40.9998 791l205.999 0 1.00026 -334c38.167,1.00026 57.8345,22.5004 59.167,64.5005l3.83313 154.333c1.33427,56.8343 12.3335,95.3334 32.9996,115.167l190.001 0c-18.3333,-19.1656 -27.3338,-58.9991 -26.9998,-119.166l1.00026 -135.667c0.666243,-81.9997 -45.501,-128.833 -138.668,-140.166 93.1668,-11.3333 139.334,-58.833 138.668,-142.167l-1.00026 -125.832c-0.334014,-60.0011 8.66651,-102.667 26.9998,-128.001l-190.001 0c-21.9985,19.8337 -32.9996,58.3329 -32.9996,115.333l0 154.166c0,19.6676 -5.83364,35.3341 -17.4991,47.1675 -11.8334,11.8334 -26.9998,17.9993 -45.501,18.3333l-1.00026 -335 -205.999 0 0 791z"
   id="glyph15-6" />
   <glyph
   unicode="Т"
   horiz-adv-x="461"
   d="M454.999 791l0 -158 -120.999 0 0 -633 -205.999 0 0 633 -122.001 0 0 158 448.999 0z"
   id="glyph16-5" />
   <glyph
   unicode="и"
   horiz-adv-x="558"
   d="M524.001 0l-172.001 0 0 350.167 -137.166 -350.167 -179.834 0 0 648.001 172 0 0 -347.168 134.833 347.168 182.168 0 0 -648.001z"
   id="glyph17-7" />
   <glyph
   unicode="к"
   horiz-adv-x="511"
   d="M230 647.833l0 -251.833c41.3338,0 61.9999,22.0003 61.9999,65.833l0 109.834c0,44.1667 7.33403,69.6661 22.0003,76.166l189.999 0c-14.6663,-21.1662 -21.9985,-52.4992 -21.9985,-93.6652l0 -90.3339c0,-31.501 -12.8337,-57.6666 -38.501,-78.5005 -9.50066,-7.83237 -29.3325,-18.8334 -59.6671,-33.1657 -19.4997,-9.50066 -41.5,-14.5002 -65.9991,-15.1682 11.4994,-1.99873 32.8334,-7.33224 64.0004,-16.1667 67.4995,-21.3323 101.165,-58.9991 101.165,-112.666l0 -113.667c0,-41.6661 7.33403,-73.1652 22.0003,-94.1653l-189.999 0c-14.6681,19.8319 -22.0003,45.1652 -22.0003,75.9999l0 136.833c0,43.8327 -21,65.833 -63.0001,65.833l0 -278.666 -195 0 0 647.499 195 0z"
   id="glyph18-6" />
   <glyph
   unicode="м"
   horiz-adv-x="683"
   d="M648.001 0l-169.001 0 0 446.833 -82.1658 -446.833 -108.001 0 -84.8325 446.833 0 -446.833 -169.001 0 0 648.001 244.332 0 63.168 -359.001 57.4987 359.001 248.001 0 0 -648.001z"
   id="glyph19-2" />
   <glyph
   unicode="о"
   horiz-adv-x="511"
   d="M481 420.499l0 -158.832c0,-58.3346 -3.00077,-101.001 -8.83441,-128.335 -5.83186,-27.1659 -18.3333,-52.4992 -37.4989,-76.166 -19.1674,-23.6668 -43.8345,-40.9998 -74.0012,-52.3331 -30.1667,-11.1672 -64.6666,-16.8329 -103.666,-16.8329 -43.6666,0 -80.6672,4.83339 -110.834,14.3323 -30.3328,9.66677 -53.8335,24.1669 -70.5003,43.5005 -16.8329,19.4997 -28.8324,43.0003 -35.9985,70.5003 -7.16791,27.4999 -10.667,68.8338 -10.667,123.834l0 166.166c0,60.3334 6.49989,107.333 19.4997,141.333 12.9998,33.8337 36.5005,61.0014 70.3342,81.5013 33.8319,20.4999 77.1663,30.8329 129.833,30.8329 44.1649,0 82.1658,-6.666 113.999,-19.8337 31.6671,-13.1659 56.1662,-30.3328 73.501,-51.499 17.1651,-21.1679 28.9985,-43.0003 35.3323,-65.5008 6.33377,-22.5004 9.50066,-56.6664 9.50066,-102.667zm-197.001 48.834c0,33.1675 -1.83261,54.1675 -5.33351,62.6661 -3.66701,8.66651 -11.3333,13.0016 -23.1667,13.0016 -11.8334,0 -19.6658,-4.33504 -23.6668,-13.0016 -3.83313,-8.49861 -5.83364,-29.4987 -5.83364,-62.6661l0 -292.5c0,-30.6668 2.00051,-50.6666 5.83364,-59.8332 4.00103,-9.33276 11.6673,-14 23.1667,-14 11.8334,0 19.4997,4.16714 23.3346,12.6675 3.83313,8.49861 5.66574,26.6658 5.66574,54.6658l0 299z"
   id="glyph20-7" />
   <glyph
   unicode="р"
   horiz-adv-x="518"
   d="M235.5 648.001l-3.49911 -57.3344c17.6653,23.3346 36.9988,40.6676 58.1667,52.167 21.1662,11.4994 44.3328,17.1669 69.3321,17.1669 30.6668,0 57.1665,-8.16639 79.5008,-24.6671 22.1664,-16.4989 36.1664,-35.5002 41.6661,-57.0004 5.49963,-21.5002 8.33429,-57.9988 8.33429,-109.5l0 -273.167c0,-58.9991 -3.5009,-100.833 -10.5009,-125.832 -7.00001,-24.8332 -21.3341,-44.8347 -43.0003,-59.6671 -21.6663,-14.8342 -47.8319,-22.1664 -78.4988,-22.1664 -24.3348,0 -47.0014,5.66574 -67.8335,17.1669 -20.8339,11.4994 -39.8335,28.4984 -57.1665,51.1667l0 -148.335 -197.001 0 0 740.001 200.5 0zm56.5002 -188.5c0,40.1657 -1.50039,64.3326 -4.49937,72.833 -2.83466,8.5004 -11.001,12.6675 -24.5009,12.6675 -13.1659,0 -21.5002,-4.83339 -25.3333,-14.6681 -3.83313,-9.66677 -5.66574,-33.3336 -5.66574,-70.8325l0 -268.667c0,-38.9993 1.99873,-63.5003 5.83186,-73.167 4.00103,-9.83289 12.5014,-14.6663 25.6673,-14.6663 12.8337,0 20.666,4.50116 23.8329,13.4999 3.16689,8.83441 4.66727,30.6668 4.66727,65.1668l0 277.834z"
   id="glyph21-0" />
   <glyph
   unicode="т"
   horiz-adv-x="430"
   d="M426.001 648.001l0 -136.001 -113 0 0 -512 -197.001 0 0 512 -112.999 0 0 136.001 423 0z"
   id="glyph22-3" />
   <glyph
   unicode="ф"
   horiz-adv-x="768"
   d="M738 195.832c0,-45.3331 -2.66676,-81.4995 -8.00027,-108.665 -5.33351,-27.1677 -17.8332,-49.0001 -37.3328,-65.5008 -19.3335,-16.4989 -49.168,-24.6671 -89.0015,-24.6671 -51.833,0 -92.4988,19.6676 -121.665,59.0009l0 -149.001 -196 0 0 148.167c-31.501,-39.4994 -74.1673,-59.1652 -127.833,-59.1652 -35.0001,0 -62.834,6.83211 -83.3339,20.4999 -20.4999,13.666 -33.1675,32.4994 -38.3331,56.4985 -5.00129,23.8347 -7.50014,58.5008 -7.50014,103.668l0 273.501c0,45.3331 2.83287,81.4995 8.3325,108.665 5.49963,27.1677 18.0011,49.0001 37.5007,65.5008 19.4997,16.4989 49.3323,24.6671 89.1658,24.6671 52.167,0 92.6667,-19.6676 122.001,-59.167l0 159.166 196 0 0 -158.166c31.4992,39.4994 73.9994,59.1652 127.499,59.1652 35.0001,0 62.834,-6.83211 83.1678,-20.4999 20.4999,-13.666 33.1657,-32.4994 37.9991,-56.5002 4.83339,-23.8329 7.33403,-58.499 7.33403,-103.666l0 -273.501zm-197.001 -43.9988l0 308.167c0,31.6671 -0.166114,50.8327 -0.500129,57.6666 -0.332228,6.83211 -2.49886,13.1659 -6.666,18.8334 -4.16714,5.66574 -11.1672,8.5004 -21.1662,8.5004 -10.8349,0 -18.6673,-4.00103 -23.5007,-12.0013 -4.83339,-8.00027 -7.16613,-22.1664 -7.16613,-42.6663l0 -337.499c0,-33.1675 10.4991,-49.8342 31.6653,-49.8342 9.00053,0 15.6665,3.333 20.3338,9.83289 4.66727,6.49989 7.00001,19.5014 7.00001,39.0011zm-254.999 3.83313l0 337.499c0,33.1675 -10.667,49.8342 -32.1672,49.8342 -9.16664,0 -16.0005,-3.333 -20.8339,-9.83289 -4.66549,-6.50167 -7.00001,-19.5014 -7.00001,-39.0011l0 -308.167c0,-31.6671 0.1679,-50.8327 0.500129,-57.6666 0.334014,-6.83211 2.66676,-13.1659 6.8339,-18.8334 4.16714,-5.66574 11.3333,-8.5004 21.5002,-8.5004 10.9993,0 18.9995,4.00103 23.8329,12.0013 4.83339,8.00027 7.33403,22.1664 7.33403,42.6663z"
   id="glyph23-9" />
  </font><style
       type="text/css"
       id="style23-9">
   <![CDATA[
    @font-face { font-family:"Cuprum";font-variant:normal;font-style:normal,italic;font-weight:bold;src:url("#FontID1") format(svg)}
    @font-face { font-family:"Impact";font-variant:normal;font-style:normal;font-weight:normal;src:url("#FontID0") format(svg)}
    .fil0 {fill:#1919E0}
    .fnt0 {font-weight:normal;font-size:5598.56px;font-family:'Impact'}
    .fnt1 {font-style:italic;font-weight:bold;font-size:2378.2px;font-family:'Cuprum'}
   ]]>
  </style><font
       id="FontID1-7"
       horiz-adv-x="540"
       font-variant="normal"
       style="fill-rule:nonzero"
       font-style="normal,italic"
       font-weight="700"
       horiz-origin-x="0"
       horiz-origin-y="0"
       vert-origin-x="512"
       vert-origin-y="768"
       vert-adv-y="1024">
	<font-face
   font-family="Cuprum"
   id="font-face1-1">
		<font-face-src>
			<font-face-name
   name="Cuprum Bold Italic" />
		</font-face-src>
	</font-face>
   <missing-glyph
   id="missing-glyph1-38"><path
     d="M0 0z"
     id="path1-4" /></missing-glyph>
   <glyph
   unicode="-"
   horiz-adv-x="380"
   d="M89.0001 340.001l319.998 0 -13.998 -80.0017 -320.003 0 14.0022 80.0017z"
   id="glyph1-8" />
   <glyph
   unicode="а"
   horiz-adv-x="490"
   d="M336.999 440.001c-15.3309,0 -29.4971,-2.83408 -42.4985,-8.50223 -13.0014,-5.66395 -25.1661,-15.6673 -36.4982,-29.9975 -11.3363,-14.3344 -21.5037,-33.8365 -30.5021,-58.5022 -8.9984,-24.6657 -16.8321,-55.6639 -23.501,-92.9989 -6.6647,-37.335 -9.83096,-68.3332 -9.49878,-92.9989 0.332184,-24.6657 3.16626,-44.1679 8.49802,-58.5022 5.33597,-14.3302 13.0014,-24.3335 23.0006,-29.9975 10.0034,-5.66815 21.3355,-8.50223 34.0005,-8.50223 12.6692,0 24.1695,2.00151 34.5009,6.00034 10.3313,3.99882 18.5014,8.66622 24.5017,14.0022l62.9972 359.999 -45.0004 0zm87.9993 -440.001l-84.9971 0 -9.99916 30.0017 -5.00378 0c-12.665,-10.0034 -28.3324,-19.17 -46.9977,-27.4998 -18.6654,-8.33403 -41.9981,-12.5011 -69.9983,-12.5011 -25.3343,0 -47.5023,4.6674 -66.4999,13.998 -19.0018,9.33479 -34.1687,24.3335 -45.5008,45.0004 -11.3363,20.6669 -18.3332,47.5023 -21.0033,80.5021 -2.66588,32.9997 0.336389,73.1646 9.00261,120.499 7.99765,47.3341 19.334,87.4989 34.0005,120.499 14.6666,32.9997 32.8316,59.8352 54.4992,80.5021 21.6676,20.6669 47.1659,35.6656 76.499,45.0004 29.3331,9.33059 62.6692,13.998 100,13.998 35.3334,0 64.9987,-2.49769 89.0001,-7.49727 24.0013,-5.00378 47.6663,-12.5011 70.9991,-22.5002l-84.0005 -480.002z"
   id="glyph2-0" />
   <glyph
   unicode="в"
   horiz-adv-x="490"
   d="M255 59.9992c11.3321,0 22.332,1.33294 32.9997,3.99882 10.6677,2.67009 20.4987,7.33328 29.5013,14.0022 8.9984,6.6647 16.8321,15.4991 23.501,26.499 6.6647,10.9999 11.3321,24.5017 13.998,40.5012 5.33176,29.9975 0.500378,50.8326 -14.4984,62.5011 -15.0029,11.6643 -33.8365,17.4964 -56.5007,17.4964l-59.9992 0 -29.0009 -164.999 59.9992 0zm7.00109 380.002l-25.0021 -145 50 0c19.334,0 37.5032,5.33176 54.5034,15.9995 16.996,10.6677 27.832,28.6687 32.4994,53.9988 2.66588,14.0022 2.49769,25.6665 -0.500378,35.0013 -3.00227,9.33479 -7.50147,17.0003 -13.5018,23.0006 -6.00034,6.00034 -13.3336,10.3313 -21.9998,13.0014 -8.66622,2.66588 -17.3324,3.99882 -25.9987,3.99882l-50 0zm-111 50c26.6672,7.33328 53.3345,12.5011 79.9975,15.4991 26.6672,2.99807 57.6697,4.4992 93.0031,4.4992 32.6634,0 60.9999,-2.1655 84.9971,-6.50071 24.0013,-4.33101 43.5035,-11.8325 58.5022,-22.5002 14.9987,-10.6635 25.3343,-24.9979 30.9982,-42.9989 5.66815,-18.001 6.16853,-40.6652 1.50114,-68.001 -3.33445,-15.9995 -8.49802,-29.8335 -15.4991,-41.4978 -7.00109,-11.6685 -15.0029,-21.4995 -24.0013,-29.5013 -8.9984,-7.99765 -18.6654,-14.4984 -29.0009,-19.4979 -10.3313,-4.99958 -20.1665,-9.1666 -29.4971,-12.5011l-1.00076 -3.99882c10.6677,-3.33445 21.3313,-8.00185 31.999,-14.0022 10.6677,-6.00034 19.9983,-13.998 28.0002,-24.0013 8.00185,-9.99916 13.834,-21.9998 17.5006,-35.9978 3.66664,-14.0022 3.83483,-30.3339 0.500378,-48.9992 -5.33597,-30.0017 -14.0022,-54.6674 -26.0029,-74.0013 -11.9965,-19.334 -27.832,-34.6649 -47.4981,-46.0012 -19.6661,-11.3321 -42.9989,-19.1658 -69.9983,-23.4968 -27.0036,-4.33521 -57.8337,-6.50071 -92.5027,-6.50071 -40.0008,0 -73.501,1.50114 -100.5,4.4992 -26.9994,2.99807 -52.4977,8.16584 -76.499,15.4991l85.0013 480.002z"
   id="glyph3-4" />
   <glyph
   unicode="г"
   horiz-adv-x="414"
   d="M331.999 380.002c3.33445,19.9983 -2.99807,34.9971 -18.9976,44.9962 -15.9995,10.0034 -38.0035,15.0029 -65.9995,15.0029l-110.003 0 9.00261 50c15.9995,5.33176 35.8338,9.99916 59.4988,13.998 23.665,4.00303 48.1667,6.00034 73.501,6.00034 31.3304,0 58.6662,-2.1655 81.999,-6.50071 23.3328,-4.33101 42.4985,-11.8325 57.5015,-22.5002 14.9987,-10.6635 25.1661,-24.9979 30.4979,-42.9989 5.33597,-18.001 5.66815,-40.6652 1.00076,-68.001 -4.6674,-28.6645 -14.4984,-51.9973 -29.5013,-69.9983 -14.9987,-18.001 -32.1672,-32.8316 -51.4969,-44.5 -19.334,-11.6685 -40.0008,-21.4995 -62.0007,-29.5013 -21.9998,-7.99765 -42.5027,-16.1635 -61.5003,-24.4975 -19.0018,-8.33403 -35.1695,-18.001 -48.4989,-29.0009 -13.3336,-10.9999 -21.6676,-25.1661 -25.0021,-42.4985 -3.99882,-25.3343 2.66588,-43.3353 19.9983,-54.003 17.3366,-10.6635 45.0004,-15.9995 82.9997,-15.9995l110.003 0 -9.00261 -50c-15.3309,-5.33176 -34.9971,-9.99916 -58.9984,-13.998 -24.0013,-4.00303 -48.6671,-6.00034 -74.0013,-6.00034 -35.9978,0 -67.1642,2.1655 -93.4993,6.50071 -26.335,4.33101 -47.4981,12.1647 -63.4976,23.4968 -16.0037,11.3363 -26.6672,26.6672 -32.0032,46.0012 -5.33176,19.334 -5.33176,43.9997 0,74.0013 4.6674,28.6645 14.5026,51.9973 29.5013,69.9983 14.9987,18.001 32.1672,32.8358 51.5011,44.5 19.334,11.6685 39.9966,21.4995 62.0007,29.5013 21.9998,7.99765 42.4985,16.1677 61.4961,24.4975 19.0018,8.33403 35.1695,18.001 48.5031,29.0009 13.3336,10.9999 21.6676,25.1661 24.9979,42.5027z"
   id="glyph4-6" />
   <glyph
   unicode="ж"
   horiz-adv-x="669"
   d="M483 500l-35.9978 -200 4.99958 0c7.33328,0 14.9987,3.49844 22.9964,10.4995 8.00185,7.00109 18.6696,21.8358 32.0032,44.5l42.9989 75.0021c14.6666,25.3301 31.4986,44.9962 50.5004,58.9984 18.9976,13.998 43.4993,20.9991 73.501,20.9991 8.66622,0 16.8321,-0.500378 24.4975,-1.50114 7.66967,-0.996552 14.5026,-2.1655 20.5029,-3.49844 7.33328,-2.00151 13.6658,-3.66664 18.9976,-4.99958l-8.9984 -50c-17.3324,0 -30.666,-3.16626 -40.0008,-9.49878 -9.33479,-6.33252 -15.9995,-13.1696 -19.9983,-20.5029l-37.0028 -64.9987c-15.3309,-28.0002 -30.3339,-48.6671 -45.0004,-62.0007 -14.6666,-13.3336 -29.9975,-21.9998 -45.997,-25.9987l-1.00076 -3.99882c17.3324,-4.00303 32.6676,-13.0014 46.0012,-26.9994 13.3294,-14.0022 20.9991,-36.002 22.9964,-66.0037l6.00034 -79.9975c1.33294,-9.99916 6.16853,-19.1658 14.5026,-27.4998 8.33403,-8.33403 21.1673,-12.5011 38.4997,-12.5011l-8.00185 -50c-6.00034,-2.00151 -12.665,-3.66664 -19.9983,-4.99958 -13.3336,-3.33445 -29.0009,-4.99958 -47.0019,-4.99958 -32.6676,0 -56.9969,7.83366 -73.0006,23.501 -15.9995,15.6631 -24.9979,36.166 -26.9994,61.4961l-8.9984 95.0004c-1.33294,17.3366 -6.00034,30.8342 -14.0022,40.5012 -7.99765,9.66698 -18.3332,14.4984 -30.9982,14.4984l-4.99958 0 -39.0001 -224.998 -120.003 0 39.0001 224.998 -4.99958 0c-26.663,0 -48.3307,-18.3332 -64.9987,-54.9996l-41.0016 -95.0004c-11.3321,-25.3301 -27.6638,-45.833 -48.9992,-61.4961 -21.3313,-15.6673 -48.3307,-23.501 -80.9982,-23.501 -18.001,0 -32.9997,1.66512 -45.0004,4.99958 -6.66891,1.33294 -12.665,2.99807 -18.001,4.99958l8.00185 50c17.3324,0 31.8308,4.16702 43.4993,12.5011 11.6643,8.33403 19.4979,17.5006 23.501,27.4998l34.0005 79.9975c13.3336,30.0017 28.9967,52.0015 46.9977,66.0037 18.001,13.998 36.6664,22.9964 56.0003,26.9994l1.00076 3.99882c-15.3351,3.99882 -28.0002,12.665 -37.9993,25.9987 -10.0034,13.3336 -17.6688,34.0005 -23.0006,62.0007l-13.0014 64.9987c-1.99731,7.33328 -6.50071,14.1704 -13.4976,20.5029 -7.00109,6.33252 -19.17,9.49878 -36.5024,9.49878l9.00261 50 19.9983 4.99958c6.00034,1.33294 12.8332,2.50189 20.4987,3.49844 7.66967,1.00076 16.1677,1.50114 25.5025,1.50114 29.9975,0 52.1655,-7.00109 66.4999,-20.9991 14.3302,-14.0022 24.1653,-33.6683 29.4971,-58.9984l17.0003 -75.0021c5.33597,-22.6642 10.6677,-37.4989 15.9995,-44.5 5.33597,-7.00109 11.6685,-10.4995 19.0018,-10.4995l4.99958 0 36.002 200 119.998 0z"
   id="glyph5-0" />
   <glyph
   unicode="и"
   horiz-adv-x="504"
   d="M218.001 -9.99916c-21.3355,0 -41.0016,2.1655 -59.0026,6.50071 -17.9968,4.33101 -32.9997,12.4968 -45.0004,24.4975 -11.9965,12.0007 -20.3305,28.3324 -24.9979,48.9992 -4.6674,20.6669 -3.99882,47.3341 2.00151,80.0017l61.9965 350 120.003 0 -62.0007 -350c-3.33445,-17.3324 -3.66664,-31.835 -1.00076,-43.4993 2.66588,-11.6685 7.16929,-20.9991 13.5018,-28.0002 6.33252,-7.00109 13.998,-11.8325 23.0006,-14.5026 8.9984,-2.66588 18.4972,-3.99882 28.4963,-3.99882 12.6692,0 24.1695,2.00151 34.5009,6.00034 10.3355,3.99882 18.5014,8.66622 24.5017,14.0022l74.0013 419.998 119.998 0 -87.9993 -500 -85.0013 0 -9.99916 30.0017 -4.99958 0c-12.6692,-10.0034 -28.6687,-19.17 -48.0027,-27.4998 -19.3297,-8.33403 -43.9997,-12.5011 -73.9971,-12.5011z"
   id="glyph6-32" />
   <glyph
   unicode="к"
   horiz-adv-x="469"
   d="M340.001 263.001c17.3324,-4.00303 32.6676,-13.0014 46.0012,-26.9994 13.3294,-14.0022 20.9991,-36.002 22.9964,-66.0037l6.00034 -79.9975c1.33294,-9.99916 6.16853,-19.1658 14.5026,-27.4998 8.33403,-8.33403 21.1673,-12.5011 38.4997,-12.5011l-8.00185 -50c-6.00034,-2.00151 -12.665,-3.66664 -19.9983,-4.99958 -13.3336,-3.33445 -29.0009,-4.99958 -47.0019,-4.99958 -32.6676,0 -56.9969,7.83366 -73.0006,23.501 -15.9995,15.6631 -24.9979,36.166 -26.9994,61.4961l-8.9984 95.0004c-1.33294,17.3366 -6.00034,30.8342 -14.0022,40.5012 -7.99765,9.66698 -18.3332,14.4984 -30.9982,14.4984l-14.9987 0 -39.0001 -224.998 -120.003 0 87.9993 500 120.003 0 -36.002 -200 15.0029 0c7.33328,0 14.9987,3.49844 22.9964,10.4995 8.00185,7.00109 18.6696,21.8358 32.0032,44.5l42.9989 75.0021c14.6666,25.3301 31.4986,44.9962 50.5004,58.9984 18.9976,13.998 43.4993,20.9991 73.501,20.9991 8.66622,0 16.8321,-0.500378 24.4975,-1.50114 7.66967,-0.996552 14.5026,-2.1655 20.5029,-3.49844 7.33328,-2.00151 13.6658,-3.66664 18.9976,-4.99958l-8.9984 -50c-17.3324,0 -30.666,-3.16626 -40.0008,-9.49878 -9.33479,-6.33252 -15.9995,-13.1696 -19.9983,-20.5029l-37.0028 -64.9987c-15.3309,-28.0002 -30.3339,-48.6671 -45.0004,-62.0007 -14.6666,-13.3336 -29.9975,-21.9998 -45.997,-25.9987l-1.00076 -3.99882z"
   id="glyph7-6" />
   <glyph
   unicode="м"
   horiz-adv-x="659"
   d="M292.999 74.9979l-46.9977 240.001 -4.00303 0 -76.9994 -314.999 -114.999 0 123.001 500 129.997 0 59.0026 -305 3.99882 0 167 305 130.002 0 -53.0023 -500 -114.999 0 32.9997 314.999 -3.99882 0 -131.002 -240.001 -100 0z"
   id="glyph8-94" />
   <glyph
   unicode="н"
   horiz-adv-x="504"
   d="M185.001 0l-120.003 0 87.9993 500 120.003 0 -36.9986 -209.999 134.997 0 37.0028 209.999 119.998 0 -87.9993 -500 -120.003 0 37.0028 214.999 -135.001 0 -36.9986 -214.999z"
   id="glyph9-1" />
   <glyph
   unicode="о"
   horiz-adv-x="480"
   d="M318.001 445c-11.3363,0 -22.3362,-2.83408 -32.9997,-8.50223 -10.6677,-5.66395 -20.8351,-15.8313 -30.5021,-30.4979 -9.66698,-14.6666 -18.8336,-34.6691 -27.4998,-59.9992 -8.66622,-25.3343 -16.3317,-57.3333 -23.0006,-96.0012 -7.33328,-38.6679 -11.1639,-70.6669 -11.5003,-96.0012 -0.332184,-25.3301 1.83332,-45.3326 6.50071,-59.9992 4.6674,-14.6666 11.3321,-24.8339 20.0025,-30.4979 8.66622,-5.66815 18.6654,-8.50223 29.9975,-8.50223 11.3321,0 22.332,2.83408 32.9997,8.50223 10.6677,5.66395 20.9991,15.8313 31.0024,30.4979 9.99916,14.6666 19.1658,34.6691 27.4998,59.9992 8.33403,25.3343 16.1635,57.3333 23.4968,96.0012 6.66891,38.6679 10.1674,70.6669 10.5037,96.0012 0.332184,25.3301 -1.83332,45.3326 -6.50071,59.9992 -4.6674,14.6666 -11.3363,24.8339 -20.0025,30.4979 -8.66622,5.66815 -18.6654,8.50223 -29.9975,8.50223zm10.9999 64.9987c32.6676,0 60.6677,-4.6674 84.0005,-13.998 23.3328,-9.33479 41.666,-24.3335 54.9996,-45.0004 13.3336,-20.6669 21.3313,-47.5023 23.9971,-80.5021 2.67009,-32.9997 0,-73.1646 -7.99765,-120.499 -8.66622,-47.3341 -20.1665,-87.4989 -34.5009,-120.499 -14.3344,-32.9997 -31.835,-59.8352 -52.4977,-80.5021 -20.6669,-20.6669 -44.1679,-35.6656 -70.5029,-45.0004 -26.3308,-9.33059 -55.8321,-13.998 -88.4997,-13.998 -32.6676,0 -60.6677,4.6674 -84.0005,13.998 -23.3328,9.33479 -41.4978,24.3335 -54.4992,45.0004 -13.0014,20.6669 -20.9991,47.5023 -24.0013,80.5021 -2.99807,32.9997 -0.16399,73.1646 8.50223,120.499 7.99765,47.3341 19.1658,87.4989 33.5001,120.499 14.3344,32.9997 31.8308,59.8352 52.4977,80.5021 20.6669,20.6669 44.1679,35.6656 70.5029,45.0004 26.3308,9.33059 55.8321,13.998 88.4997,13.998z"
   id="glyph10-3" />
   <glyph
   unicode="п"
   horiz-adv-x="504"
   d="M374.001 509.999c21.3313,0 40.9974,-2.1655 58.9984,-6.50071 18.001,-4.33101 32.9997,-12.4968 45.0004,-24.4975 12.0007,-12.0007 20.3347,-28.3324 24.9979,-48.9992 4.6674,-20.6669 4.00303,-47.3341 -1.99731,-80.0017l-60.9999 -350 -120.003 0 60.9999 350c3.33445,17.3324 3.66664,31.835 1.00076,43.4993 -2.66588,11.6685 -7.16508,20.9991 -13.4976,28.0002 -6.33673,7.00109 -14.0022,11.8325 -23.0006,14.5026 -9.00261,2.66588 -18.5014,3.99882 -28.5005,3.99882 -12.665,0 -24.1653,-2.00151 -34.5009,-6.00034 -10.3313,-3.99882 -18.165,-8.66622 -23.501,-14.0022l-73.9971 -419.998 -120.003 0 87.9993 500 85.0013 0 9.00261 -30.0017 4.99958 0c12.665,10.0034 28.6645,19.17 47.9985,27.4998 19.334,8.33403 43.9997,12.5011 74.0013,12.5011z"
   id="glyph11-7" />
   <glyph
   unicode="р"
   horiz-adv-x="490"
   d="M198.999 80.0017c3.99882,-5.33597 10.3355,-10.0034 19.0018,-14.0022 8.66622,-3.99882 19.334,-6.00034 31.999,-6.00034 12.665,0 24.9979,2.83408 36.9986,8.50223 12.0007,5.66395 23.3328,15.6673 34.0005,29.9975 10.6677,14.3344 20.5029,33.8365 29.5013,58.5022 8.9984,24.6657 16.8321,55.6639 23.501,92.9989 6.6647,37.335 9.66698,68.3332 8.9984,92.9989 -0.664368,24.6657 -3.66664,44.1679 -8.9984,58.5022 -5.33597,14.3302 -13.0014,24.3335 -23.0006,29.9975 -9.99916,5.66815 -21.3355,8.50223 -34.0005,8.50223 -12.665,0 -23.501,-2.00151 -32.4994,-6.00034 -9.00261,-3.99882 -17.5006,-8.66622 -25.5025,-14.0022l-59.9992 -339.997zm170.003 429.997c24.6657,0 46.6655,-4.6674 65.9995,-13.998 19.334,-9.33479 34.8331,-24.3335 46.4974,-45.0004 11.6685,-20.6669 18.6696,-47.5023 21.0033,-80.5021 2.32949,-32.9997 -0.500378,-73.1646 -8.50223,-120.499 -8.66622,-47.3341 -20.1665,-87.4989 -34.5009,-120.499 -14.3302,-32.9997 -30.9982,-59.8352 -50,-80.5021 -18.9976,-20.6669 -40.497,-35.6656 -64.4984,-45.0004 -24.0013,-9.33059 -49.6678,-13.998 -76.9994,-13.998 -17.3324,0 -32.8358,2.3337 -46.5016,7.00109 -13.6658,4.66319 -25.1661,10.6635 -34.5009,17.9968l-37.9993 -214.999 -119.998 0 123.997 700 85.0013 0 9.00261 -30.0017 4.99958 0c12.665,10.0034 28.3324,19.17 46.9977,27.4998 18.6654,8.33403 42.0024,12.5011 70.0025,12.5011z"
   id="glyph12-8" />
   <glyph
   unicode="т"
   horiz-adv-x="740"
   d="M430.002 0l-120.003 0 60.9999 350c3.33445,17.3324 3.83483,31.835 1.50114,43.4993 -2.3337,11.6685 -6.33252,20.9991 -12.0007,28.0002 -5.66815,7.00109 -12.5011,11.8325 -20.4987,14.5026 -8.00185,2.66588 -15.6673,3.99882 -23.0006,3.99882 -12.665,0 -24.1653,-2.00151 -34.5009,-6.00034 -10.3313,-3.99882 -18.165,-8.66622 -23.501,-14.0022l-73.9971 -419.998 -120.003 0 87.9993 500 85.0013 0 9.00261 -30.0017 4.99958 0c12.665,10.0034 28.6645,19.17 47.9985,27.4998 19.334,8.33403 43.9997,12.5011 74.0013,12.5011 25.3301,0 46.3334,-3.49844 62.9972,-10.4995 16.6681,-7.00109 30.0017,-16.8321 40.0008,-29.5013 17.3324,12.6692 36.9986,22.5002 59.0026,29.5013 21.9998,7.00109 47.9985,10.4995 77.996,10.4995 20.0025,0 38.6679,-2.1655 56.0003,-6.50071 17.3366,-4.33101 31.835,-12.4968 43.5035,-24.4975 11.6643,-12.0007 19.8301,-28.3324 24.4975,-48.9992 4.6674,-20.6669 3.99882,-47.3341 -1.99731,-80.0017l-61.0041 -350 -119.998 0 60.9999 350c3.33445,17.3324 3.66664,31.835 1.00076,43.4993 -2.66588,11.6685 -7.00109,20.9991 -13.0014,28.0002 -6.00034,7.00109 -13.1654,11.8325 -21.4995,14.5026 -8.33403,2.66588 -16.8321,3.99882 -25.4983,3.99882 -12.6692,0 -24.1695,-1.50114 -34.5009,-4.4992 -10.3355,-3.00227 -19.8343,-6.50071 -28.5005,-10.5037 1.33294,-7.33328 2.00151,-17.8328 2.00151,-31.4986 0,-13.6658 -1.66933,-28.1642 -4.99958,-43.4993l-60.9999 -350z"
   id="glyph13-8" />
   <glyph
   unicode="я"
   horiz-adv-x="469"
   d="M307.001 440.001c-9.99916,0 -20.0025,-1.33294 -30.0017,-3.99882 -9.99916,-2.67009 -19.334,-7.50147 -28.0002,-14.5026 -8.66622,-7.00109 -16.3317,-16.3317 -23.0006,-28.0002 -6.6647,-11.6643 -11.6643,-26.1668 -14.9987,-43.4993 -2.66588,-15.9995 -2.66588,-29.5013 0,-40.5012 2.66588,-10.9999 7.16508,-19.8301 13.5018,-26.499 6.33252,-6.6647 13.998,-11.3321 22.9964,-13.998 9.00261,-2.67009 18.5014,-4.00303 28.5005,-4.00303l54.9996 0 31.0024 175.002 -54.9996 0zm-113.001 -223.001c-16.6681,0.664368 -31.999,3.99882 -46.0012,9.99916 -13.998,6.00034 -25.8305,14.5026 -35.4974,25.5025 -9.66698,10.9999 -16.6681,24.6657 -20.9991,40.9974 -4.33521,16.3359 -4.50341,35.1695 -0.500378,56.5007 6.00034,32.6676 15.4991,59.3348 28.4963,80.0017 13.0014,20.6669 29.3373,36.9986 49.0034,48.9992 19.6661,12.0007 42.1663,20.1665 67.5006,24.4975 25.3301,4.33521 52.9981,6.50071 82.9997,6.50071 37.9993,0 70.3305,-1.50114 96.9977,-4.4992 26.6672,-2.99807 51.6651,-8.16584 75.0021,-15.4991l-86.002 -490.001 -119.998 0 32.9997 190.001 -19.0018 0c-25.9987,0 -47.3341,-15.0029 -63.998,-45.0004l-43.0031 -75.0021c-14.6666,-25.3301 -31.1664,-45.0004 -49.4996,-58.9984 -18.3332,-13.998 -41.4978,-20.9991 -69.4979,-20.9991 -18.001,0 -32.9997,1.66512 -45.0004,4.99958 -6.66891,1.33294 -12.665,2.99807 -18.001,4.99958l8.00185 50c17.3324,0 30.666,3.16626 40.0008,9.49878 9.33059,6.33252 16.3317,13.1696 20.9991,20.5029l35.9978 64.9987c12.6692,22.6642 24.8339,38.6679 36.5024,47.9985 11.6643,9.33479 25.4983,15.9995 41.4978,20.0025l1.00076 3.99882z"
   id="glyph14-3" />
  </font><font
       id="FontID0-8"
       horiz-adv-x="507"
       font-variant="normal"
       style="fill-rule:nonzero"
       font-weight="400"
       horiz-origin-x="0"
       horiz-origin-y="0"
       vert-origin-x="512"
       vert-origin-y="768"
       vert-adv-y="1024">
	<font-face
   font-family="Impact"
   id="font-face14-1">
		<font-face-src>
			<font-face-name
   name="Impact" />
		</font-face-src>
	</font-face>
   <missing-glyph
   id="missing-glyph14-5"><path
     d="M0 0z"
     id="path14-3" /></missing-glyph>
   <glyph
   unicode="К"
   horiz-adv-x="536"
   d="M40.9998 791l205.999 0 1.00026 -334c38.167,1.00026 57.8345,22.5004 59.167,64.5005l3.83313 154.333c1.33427,56.8343 12.3335,95.3334 32.9996,115.167l190.001 0c-18.3333,-19.1656 -27.3338,-58.9991 -26.9998,-119.166l1.00026 -135.667c0.666243,-81.9997 -45.501,-128.833 -138.668,-140.166 93.1668,-11.3333 139.334,-58.833 138.668,-142.167l-1.00026 -125.832c-0.334014,-60.0011 8.66651,-102.667 26.9998,-128.001l-190.001 0c-21.9985,19.8337 -32.9996,58.3329 -32.9996,115.333l0 154.166c0,19.6676 -5.83364,35.3341 -17.4991,47.1675 -11.8334,11.8334 -26.9998,17.9993 -45.501,18.3333l-1.00026 -335 -205.999 0 0 791z"
   id="glyph15-5" />
   <glyph
   unicode="Т"
   horiz-adv-x="461"
   d="M454.999 791l0 -158 -120.999 0 0 -633 -205.999 0 0 633 -122.001 0 0 158 448.999 0z"
   id="glyph16-4" />
   <glyph
   unicode="и"
   horiz-adv-x="558"
   d="M524.001 0l-172.001 0 0 350.167 -137.166 -350.167 -179.834 0 0 648.001 172 0 0 -347.168 134.833 347.168 182.168 0 0 -648.001z"
   id="glyph17-3" />
   <glyph
   unicode="к"
   horiz-adv-x="511"
   d="M230 647.833l0 -251.833c41.3338,0 61.9999,22.0003 61.9999,65.833l0 109.834c0,44.1667 7.33403,69.6661 22.0003,76.166l189.999 0c-14.6663,-21.1662 -21.9985,-52.4992 -21.9985,-93.6652l0 -90.3339c0,-31.501 -12.8337,-57.6666 -38.501,-78.5005 -9.50066,-7.83237 -29.3325,-18.8334 -59.6671,-33.1657 -19.4997,-9.50066 -41.5,-14.5002 -65.9991,-15.1682 11.4994,-1.99873 32.8334,-7.33224 64.0004,-16.1667 67.4995,-21.3323 101.165,-58.9991 101.165,-112.666l0 -113.667c0,-41.6661 7.33403,-73.1652 22.0003,-94.1653l-189.999 0c-14.6681,19.8319 -22.0003,45.1652 -22.0003,75.9999l0 136.833c0,43.8327 -21,65.833 -63.0001,65.833l0 -278.666 -195 0 0 647.499 195 0z"
   id="glyph18-65" />
   <glyph
   unicode="м"
   horiz-adv-x="683"
   d="M648.001 0l-169.001 0 0 446.833 -82.1658 -446.833 -108.001 0 -84.8325 446.833 0 -446.833 -169.001 0 0 648.001 244.332 0 63.168 -359.001 57.4987 359.001 248.001 0 0 -648.001z"
   id="glyph19-9" />
   <glyph
   unicode="о"
   horiz-adv-x="511"
   d="M481 420.499l0 -158.832c0,-58.3346 -3.00077,-101.001 -8.83441,-128.335 -5.83186,-27.1659 -18.3333,-52.4992 -37.4989,-76.166 -19.1674,-23.6668 -43.8345,-40.9998 -74.0012,-52.3331 -30.1667,-11.1672 -64.6666,-16.8329 -103.666,-16.8329 -43.6666,0 -80.6672,4.83339 -110.834,14.3323 -30.3328,9.66677 -53.8335,24.1669 -70.5003,43.5005 -16.8329,19.4997 -28.8324,43.0003 -35.9985,70.5003 -7.16791,27.4999 -10.667,68.8338 -10.667,123.834l0 166.166c0,60.3334 6.49989,107.333 19.4997,141.333 12.9998,33.8337 36.5005,61.0014 70.3342,81.5013 33.8319,20.4999 77.1663,30.8329 129.833,30.8329 44.1649,0 82.1658,-6.666 113.999,-19.8337 31.6671,-13.1659 56.1662,-30.3328 73.501,-51.499 17.1651,-21.1679 28.9985,-43.0003 35.3323,-65.5008 6.33377,-22.5004 9.50066,-56.6664 9.50066,-102.667zm-197.001 48.834c0,33.1675 -1.83261,54.1675 -5.33351,62.6661 -3.66701,8.66651 -11.3333,13.0016 -23.1667,13.0016 -11.8334,0 -19.6658,-4.33504 -23.6668,-13.0016 -3.83313,-8.49861 -5.83364,-29.4987 -5.83364,-62.6661l0 -292.5c0,-30.6668 2.00051,-50.6666 5.83364,-59.8332 4.00103,-9.33276 11.6673,-14 23.1667,-14 11.8334,0 19.4997,4.16714 23.3346,12.6675 3.83313,8.49861 5.66574,26.6658 5.66574,54.6658l0 299z"
   id="glyph20-5" />
   <glyph
   unicode="р"
   horiz-adv-x="518"
   d="M235.5 648.001l-3.49911 -57.3344c17.6653,23.3346 36.9988,40.6676 58.1667,52.167 21.1662,11.4994 44.3328,17.1669 69.3321,17.1669 30.6668,0 57.1665,-8.16639 79.5008,-24.6671 22.1664,-16.4989 36.1664,-35.5002 41.6661,-57.0004 5.49963,-21.5002 8.33429,-57.9988 8.33429,-109.5l0 -273.167c0,-58.9991 -3.5009,-100.833 -10.5009,-125.832 -7.00001,-24.8332 -21.3341,-44.8347 -43.0003,-59.6671 -21.6663,-14.8342 -47.8319,-22.1664 -78.4988,-22.1664 -24.3348,0 -47.0014,5.66574 -67.8335,17.1669 -20.8339,11.4994 -39.8335,28.4984 -57.1665,51.1667l0 -148.335 -197.001 0 0 740.001 200.5 0zm56.5002 -188.5c0,40.1657 -1.50039,64.3326 -4.49937,72.833 -2.83466,8.5004 -11.001,12.6675 -24.5009,12.6675 -13.1659,0 -21.5002,-4.83339 -25.3333,-14.6681 -3.83313,-9.66677 -5.66574,-33.3336 -5.66574,-70.8325l0 -268.667c0,-38.9993 1.99873,-63.5003 5.83186,-73.167 4.00103,-9.83289 12.5014,-14.6663 25.6673,-14.6663 12.8337,0 20.666,4.50116 23.8329,13.4999 3.16689,8.83441 4.66727,30.6668 4.66727,65.1668l0 277.834z"
   id="glyph21-4" />
   <glyph
   unicode="т"
   horiz-adv-x="430"
   d="M426.001 648.001l0 -136.001 -113 0 0 -512 -197.001 0 0 512 -112.999 0 0 136.001 423 0z"
   id="glyph22-9" />
   <glyph
   unicode="ф"
   horiz-adv-x="768"
   d="M738 195.832c0,-45.3331 -2.66676,-81.4995 -8.00027,-108.665 -5.33351,-27.1677 -17.8332,-49.0001 -37.3328,-65.5008 -19.3335,-16.4989 -49.168,-24.6671 -89.0015,-24.6671 -51.833,0 -92.4988,19.6676 -121.665,59.0009l0 -149.001 -196 0 0 148.167c-31.501,-39.4994 -74.1673,-59.1652 -127.833,-59.1652 -35.0001,0 -62.834,6.83211 -83.3339,20.4999 -20.4999,13.666 -33.1675,32.4994 -38.3331,56.4985 -5.00129,23.8347 -7.50014,58.5008 -7.50014,103.668l0 273.501c0,45.3331 2.83287,81.4995 8.3325,108.665 5.49963,27.1677 18.0011,49.0001 37.5007,65.5008 19.4997,16.4989 49.3323,24.6671 89.1658,24.6671 52.167,0 92.6667,-19.6676 122.001,-59.167l0 159.166 196 0 0 -158.166c31.4992,39.4994 73.9994,59.1652 127.499,59.1652 35.0001,0 62.834,-6.83211 83.1678,-20.4999 20.4999,-13.666 33.1657,-32.4994 37.9991,-56.5002 4.83339,-23.8329 7.33403,-58.499 7.33403,-103.666l0 -273.501zm-197.001 -43.9988l0 308.167c0,31.6671 -0.166114,50.8327 -0.500129,57.6666 -0.332228,6.83211 -2.49886,13.1659 -6.666,18.8334 -4.16714,5.66574 -11.1672,8.5004 -21.1662,8.5004 -10.8349,0 -18.6673,-4.00103 -23.5007,-12.0013 -4.83339,-8.00027 -7.16613,-22.1664 -7.16613,-42.6663l0 -337.499c0,-33.1675 10.4991,-49.8342 31.6653,-49.8342 9.00053,0 15.6665,3.333 20.3338,9.83289 4.66727,6.49989 7.00001,19.5014 7.00001,39.0011zm-254.999 3.83313l0 337.499c0,33.1675 -10.667,49.8342 -32.1672,49.8342 -9.16664,0 -16.0005,-3.333 -20.8339,-9.83289 -4.66549,-6.50167 -7.00001,-19.5014 -7.00001,-39.0011l0 -308.167c0,-31.6671 0.1679,-50.8327 0.500129,-57.6666 0.334014,-6.83211 2.66676,-13.1659 6.8339,-18.8334 4.16714,-5.66574 11.3333,-8.5004 21.5002,-8.5004 10.9993,0 18.9995,4.00103 23.8329,12.0013 4.83339,8.00027 7.33403,22.1664 7.33403,42.6663z"
   id="glyph23-1" />
  </font>
</defs>
</svg>
